Marvel's Avengers Deluxe Edition (супер цена) 159р. Внимание количество ограничено!!!

2 сезон

iTunes

iTunes

1

iTunes

iTunes

iTunes

WEBRip

iTunes

30
pack

Новость дня

ВАЖНО

!!Акция!!

Alien_RageХит недели

RePack

Horizon Zero Dawn

ИГРА 18+

pack

RePack

jed

!!Акция!!

Alien_Rage

RePack

fifa19

RePack

Assassins Creed: Odyssey

RePack

NEED FOR SPEED™ PAYBACK

4 сезон

9 сезон

Бесстыжие 9 сезон

Все сериалы

все сериалы на PB.wtf

RePack

FAR CRY 5
  

Счастливый Лазарь / Lazzaro felice (Аличе Рорвахер) [2018, драма, BDRip 720p] MVO [Официальный звук] pb.wtf

Счастливый Лазарь через торрент pb.wtf

Размер: 6.43 GB | Добавлен: 1 год 7 мес. назад | Торрент скачан:65 раз
Скачать  

17-02-2019 17:31 Счастливый Лазарь Скачать торрент  

Счастливый Лазарь / Lazzaro felice Год выпуска: 2018
Страна: Италия, Швейцария, Франция, Германия
Жанр: драма
Продолжительность: 02:08:43
Перевод: Профессиональный (многоголосый) | Официальный звук
Субтитры: отсутствуют

Режиссер: Аличе Рорвахер

rating

В ролях:

Адриано Тардиоло, Агнесса Грациани, Лука Чиковани, Альба Рорвахер, Серхи Лопес, Наталино Балассо, Томмазо Раньо, Николетта Браски, Маддалена Байокко

Описание:

В крошечной итальянской деревеньке Инвиолата время остановилось в буквальном смысле слова. Местные жители принадлежат сказочной маркизе де Луна, которая нещадно использует их труд. Всё меняется в один из визитов семьи патронов в Инвиолату. Молодой аристократичный Танкреди заводит дружбу с Лазарем - прекрасным и простодушным деревенским юношей. Фантастические коллизии их отношений полностью разрушат привычный быт деревенских жителей и приведут к практически библейскому апокалипсису их маленького мирка.

Качество: BDRip 720p
Формат: MKV

Видео: h.264, 6 701 kb/s, 1 182x720
Аудио#1: Русский (AC3, 2 ch, 448 Кбит/с)
скриншот  скриншот  скриншот  

Общее
Уникальный идентификатор : 183621742983742203028733726916766767717 (0x8A2442E636F27CB487B4039321D69A65)
Полное имя : D:\Lazzaro.Felice.2018.Pof.BDRip.72Op_KOSHARA.mkv
Формат : Matroska
Версия формата : Version 2
Размер файла : 6,43 Гбайт
Продолжительность : 2 ч. 8 м.
Режим общего битрейта : Переменный
Общий поток : 7150 Кбит/сек
Дата кодирования : UTC 2019-02-17 06:49:16
Программа кодирования : mkvmerge v8.3.0 ('Over the Horizon') 64bit
Библиотека кодирования : libebml v1.3.1 + libmatroska v1.4.2

Видео
Идентификатор : 1
Формат : AVC
Формат/Информация : Advanced Video Codec
Профиль формата : High@L4.1
Параметр CABAC формата : Да
Параметр RefFrames формата : 4 кадра
Идентификатор кодека : V_MPEG4/ISO/AVC
Продолжительность : 2 ч. 8 м.
Вид битрейта : Переменный
Битрейт : 6701 Кбит/сек
Максимальный битрейт : 7500 Кбит/сек
Ширина : 1182 пикселя
Высота : 720 пикселей
Соотношение сторон : 16:10
Режим частоты кадров : Постоянный
Частота кадров : 23,976 (24000/1001) кадра/сек
Стандарт вещания : Component
Цветовое пространство : YUV
Субдискретизация насыщенности : 4:2:0
Битовая глубина : 8 бит
Тип развёртки : Прогрессивная
Бит/(Пиксели*Кадры) : 0.322
Размер потока : 5,90 Гбайт (92%)
Default : Да
Forced : Нет
Цветовой диапазон : Limited
Основные цвета : BT.709
Характеристики трансфера : BT.709
Коэффициенты матрицы : BT.709

Аудио
Идентификатор : 2
Формат : AC-3
Формат/Информация : Audio Coding 3
Расширение режима : CM (complete main)
Параметр Endianness формата : Big
Идентификатор кодека : A_AC3
Продолжительность : 2 ч. 8 м.
Вид битрейта : Постоянный
Битрейт : 448 Кбит/сек
Каналы : 2 канала
Расположение каналов : Front: L R
Частота : 48,0 КГц
Частота кадров : 31,250 кадров/сек (1536 spf)
Метод сжатия : С потерями
Размер потока : 412 Мбайт (6%)
Default : Да
Forced : Нет

pb.wtf



Скачать Счастливый Лазарь через торрент https://c.radikal.ru/c00/1902/c7/869772d2d472.jpg Скачать фильм Счастливый Лазарь через торрент бесплантно в хорошем качестве Описание: В крошечной итальянской деревеньке Инвиолата время остановилось в буквальном смысле слова. Местные жители принадлежат сказочной ... 10 10 3
Торрент: Зарегистрирован [2019-02-17 17:31] · скачан: 65 раз
Статус: # сомнительно
Размер: 6.43 GB
Как cкачать? Как скачать Счастливый Лазарь через торрент | qTorrent

% Раздел Тема Автор DL S | L
Фильмы 2018 [DVDrip, WEB-DLRip, HDrip] (DUB, MVO) [ 1.46 GB ] Счастливый Лазарь / Lazzaro felice [2018 BDRip] MVO bober100 Скачать
1 | 0
Фильмы 2018 [DVDrip, WEB-DLRip, HDrip] (DUB, MVO) [ 2.19 GB ] Счастливый Лазарь / Lazzaro felice [2018 BDRip] MVO bober100 Скачать
1 | 0
T Фильмы (мультфильмы) cо спонсором показа (Новинки AVI/MKV) [ 2.05 GB ] Счастливый Лазарь / Lazzaro felice [2018 HDRip] MVO ["Синема УС"] bober100 Скачать
1 | 0
T Фильмы (мультфильмы) cо спонсором показа (Новинки AVI/MKV) [ 1.37 GB ] Счастливый Лазарь / Lazzaro felice [2018 HDRip] MVO ["Синема УС"] bober100 Скачать
1 | 0

28-11-2019 20:33  

Отключить всю рекламу на сайте

    Дорогой пользователь! Огромная просьба, поблагодарите релизера, оцените раздачу и оставьте свои комментарий, если Вы скачали Счастливый Лазарь через торрент бесплатно! Внесите свою лепту в развитие PiratBit!
    Комментировать посты могут только пользователи прошедшие не сложную регистрацию
    Показать сообщения:    

    Счастливый Лазарь через торрент
    Скачать бесплатно Счастливый Лазарь
    Счастливый Лазарь скачать торрент
    Счастливый Лазарь смотреть онлайн
    Cкачать фильм Счастливый Лазарь бесплатно
    Счастливый Лазарь скачать торрент в хорошем качестве
    Счастливый Лазарь смотреть онлайн бесплатно в хорошем качестве


    Вы не можете начинать темы
    Вы не можете отвечать на сообщения
    Вы не можете редактировать свои сообщения
    Вы не можете удалять свои сообщения
    Вы не можете голосовать в опросах
    Вы не можете прикреплять файлы к сообщениям
    Вы можете скачивать файлы