Ссылка на приватное зеркало всего за 1$. Внимание количество ограничено!!!

OK

1+1

iTunes

мы

OK

1

WEB-DLRip

Джокер

Пифагор

Ведьмак / The Witcher сериал

Лицензия

ПШазам

ОК

Оно 2

iTunes

30
pack

Вам бонус

ВАЖНО

!!Акция!!

Alien_RageХит недели

RePack

Resident Evil 21

ИГРА 18+

pack

RePack

jed

RePack

fifa19

RePack

Assassins Creed: Odyssey

RePack

NEED FOR SPEED™ PAYBACK

4 сезон

9 сезон

Бесстыжие 9 сезон

Все сериалы

все сериалы на PB.wtf

RePack

FAR CRY 5
  

Верните моего ребёнка / Saving My Baby (Майкл Фейфер) [2018, драма, HDTVRip 720p] MVO ["Синема УС"] pb.wtf

Верните моего ребёнка через торрент pb.wtf

Размер: 2.9 GB | Добавлен: 11 мес. назад | Торрент скачан:8 раз
Скачать  

17-02-2019 18:00 Верните моего ребёнка Скачать торрент  

Верните моего ребёнка / Saving My BabyГод выпуска: 2018
Страна: США
Жанр: драма
Продолжительность: 01:25:12
Перевод: Любительский (многоголосый) | "Синема УС"
Субтитры: отсутствуют

Режиссер: Майкл Фейфер

rating

В ролях:

Брианна Дэвис, Тоня Кэй, Кэтлин Куинлен, Гэбриэлль Мэйд, Алисия Джеймс, Нэнси Петерсен, Стэйси Ричардс Дайл, Коул Смит, Рене Эштон, Прити Десаи

Описание:

Сара Картер, на восьмом месяце беременности, внезапно попадает в аварию на Малхолланд-Драйв. Оказавшись в больнице, в критическом состоянии она рожает ребёнка. А когда просыпается от наркоза - её дочь исчезает. Где она? С кем она? Кто увёз её малышку и зачем? Какую роль здесь сыграл муж и что за коварный план строит её новая подруга? В тяжелом состоянии, не совсем поправившись, Сара отправляется на поиски дочери, ведь ничто не остановит мать на пути к воссоединению со своим малышом.

Качество: HDTVRip 720p
Формат: MKV

Видео: h.264,4 487 Кбит/с, 1280x720
Аудио#1: Русский, (AC3, 2 ch, 384 Кбит/с)
скриншот  скриншот  скриншот  

Общее
Уникальный идентификатор : 194279576549115684950647918849101373657 (0x9228E2A9F5B857C3B8E94C93878FA0D9)
Полное имя : D:\Saving.My.Baby.2018.P.HDTV.72Op.mkv
Формат : Matroska
Версия формата : Version 2
Размер файла : 2,90 Гбайт
Продолжительность : 1 ч. 25 м.
Режим общего битрейта : Переменный
Общий поток : 4873 Кбит/сек
Дата кодирования : UTC 2019-02-17 05:13:04
Программа кодирования : mkvmerge v8.3.0 ('Over the Horizon') 64bit
Библиотека кодирования : libebml v1.3.1 + libmatroska v1.4.2

Видео
Идентификатор : 1
Формат : AVC
Формат/Информация : Advanced Video Codec
Профиль формата : High@L4.1
Параметр CABAC формата : Да
Параметр RefFrames формата : 4 кадра
Идентификатор кодека : V_MPEG4/ISO/AVC
Продолжительность : 1 ч. 25 м.
Вид битрейта : Переменный
Битрейт : 4487 Кбит/сек
Максимальный битрейт : 5000 Кбит/сек
Ширина : 1280 пикселей
Высота : 720 пикселей
Соотношение сторон : 16:9
Режим частоты кадров : Постоянный
Частота кадров : 23,976 (24000/1001) кадра/сек
Стандарт вещания : Component
Цветовое пространство : YUV
Субдискретизация насыщенности : 4:2:0
Битовая глубина : 8 бит
Тип развёртки : Прогрессивная
Бит/(Пиксели*Кадры) : 0.199
Размер потока : 2,61 Гбайт (90%)
Default : Да
Forced : Нет
Цветовой диапазон : Limited
Основные цвета : BT.709
Характеристики трансфера : BT.709
Коэффициенты матрицы : BT.709

Аудио
Идентификатор : 2
Формат : AC-3
Формат/Информация : Audio Coding 3
Расширение режима : CM (complete main)
Параметр Endianness формата : Big
Идентификатор кодека : A_AC3
Продолжительность : 1 ч. 25 м.
Вид битрейта : Постоянный
Битрейт : 384 Кбит/сек
Каналы : 2 канала
Расположение каналов : Front: L R
Частота : 48,0 КГц
Частота кадров : 31,250 кадров/сек (1536 spf)
Метод сжатия : С потерями
Размер потока : 234 Мбайт (8%)
Default : Да
Forced : Нет

pb.wtf



Скачать Верните моего ребёнка через торрент https://a.radikal.ru/a35/1902/ac/128f9485806c.jpg Скачать фильм Верните моего ребёнка через торрент бесплантно в хорошем качестве Описание: Сара Картер, на восьмом месяце беременности, внезапно попадает в аварию на Малхолланд-Драйв. Оказавшись в больнице, в критическом ... 10 10 2
Торрент: Зарегистрирован [2019-02-17 18:00] · скачан: 8 раз
Статус: T временная
Размер: 2.9 GB
Как cкачать? Как скачать Верните моего ребёнка через торрент | qTorrent

% Раздел Тема Автор DL S | L
T Фильмы (мультфильмы) cо спонсором показа (Новинки AVI/MKV) [ 1.37 GB ] Верните моего ребёнка / Saving My Baby [2018 HDTVRip] MVO ["Синема УС"] bober100 Скачать
1 | 0

28-11-2019 20:33  

Отключить всю рекламу на сайте

    Дорогой пользователь! Огромная просьба, поблагодарите релизера, оцените раздачу и оставьте свои комментарий, если Вы скачали Верните моего ребёнка через торрент бесплатно! Внесите свою лепту в развитие PiratBit!
    Комментировать посты могут только пользователи прошедшие не сложную регистрацию
    Показать сообщения:    

    Верните моего ребёнка через торрент
    Скачать бесплатно Верните моего ребёнка
    Верните моего ребёнка скачать торрент
    Верните моего ребёнка смотреть онлайн
    Cкачать фильм Верните моего ребёнка бесплатно
    Верните моего ребёнка скачать торрент в хорошем качестве
    Верните моего ребёнка смотреть онлайн бесплатно в хорошем качестве


    Вы не можете начинать темы
    Вы не можете отвечать на сообщения
    Вы не можете редактировать свои сообщения
    Вы не можете удалять свои сообщения
    Вы не можете голосовать в опросах
    Вы не можете прикреплять файлы к сообщениям
    Вы можете скачивать файлы