Ссылка на приватное зеркало нашего сайта всего за 1$. Внимание количество ограничено!!!

2 сезон

iTunes

1 сезон

1

2 сезон

2 сезон

iTunes

1 сезон

RePack

30

Ultimate

ВАЖНО

ИГРА 18+

pack

RePack

MK11
pack

Забери бонус

RePack

jed

!!Акция!!

Alien_Rage

RePack

fifa19

RePack

Assassins Creed: Odyssey

RePack

NEED FOR SPEED™ PAYBACK

4 сезон

9 сезон

Бесстыжие 9 сезон

Все сериалы

все сериалы на PB.wtf

RePack

FAR CRY 5
  

Академия «Амбрелла» / The Umbrella Academy / Сезон: 1 / Серии: 1-10 из 10 (Эндрю Бернштейн, Питер Хор, Эллен Кёрас) [2019, фэнтези, боевик, WEBRip-HEVC 1080p] DUB [Пифагор] pb.wtf

Академия «Амбрелла» через торрент pb.wtf

Качают: 1 [ 0 KB/s ]
Размер: 21.72 GB | Добавлен: 1 год 9 мес. назад | Торрент скачан:197 раз
Скачать  

17-02-2019 18:39 Академия «Амбрелла» Скачать торрент  

Академия «Амбрелла» / The Umbrella Academy Год выпуска: 2019
Страна: США
Жанр: фэнтези, боевик
Продолжительность: ~ 00:55:00
Перевод: Дублированный | Пифагор по заказу Netflix
Субтитры: Russian (Forced, Full), English (Forced, SDH)

Режиссер: Эндрю Бернштейн, Питер Хор, Эллен Кёрас

rating


В ролях:

Эйдан Галлахер, Камерон Бриттон, Иден Кьюпид, Кэмерон Бродер, Ethan Hwang, Dante Albidone, Том Хоппер, Дэвид Кастанеда, Роберт Шиэн, Эмми Рэвер-Лэмпман

Описание:

Действие разворачивается в альтернативной вселенной. В середине 20-го века 43 женщины, которые до этого не были беременны, одновременно рожают младенцев, наделённых суперспособностями. Пришелец, скрывающийся под личиной сэра Реджинальда Харггривса, спасает семерых новорождённых и создаёт Академию «Амбрелла». Вместе они используют свои таланты для защиты Земли. Годы спустя, после распада Академии, ученики встречаются на похоронах Харггривса. Им предстоит вновь объединиться ради защиты человечества и выступить против одного из бывших соратников по Академии.

Качество: WEBRip-HEVC 1080p
Формат: MKV

Видео: 1920x1080 at 23.976 fps, HDR, HEVC, ~4 500 kbps avg
Аудио#1: Russian: 48 kHz, Е-AC3, 3/2 (L,C,R,l,r) + LFE ch, ~640 kbps avg |Дубляж, Пифагор по заказу Netflix|
Аудио#2: English: 48 kHz, Е-AC3, 3/2 (L,C,R,l,r) + LFE ch, ~640 kbps avg


Спасибо:
скриншот  скриншот  скриншот  скриншот  

Общее
Уникальный идентификатор : 301060602178439466629920845283241338944 (0xE27E29B292E8EF9FA9D4245C6FA5A840)
Полное имя : D:\The Umbrella Academy\The.Umbrella.Academy.S01E01.HDR.1080p.WEB.H265.EniaHD.mkv
Формат : Matroska
Версия формата : Version 4 / Version 2
Размер файла : 2,19 Гбайт
Продолжительность : 59 м. 18 с.
Общий поток : 5286 Кбит/сек
Дата кодирования : UTC 2019-02-17 10:48:41
Программа кодирования : mkvmerge v31.0.0 ('Dolores In A Shoestand') 64-bit
Библиотека кодирования : libebml v1.3.6 + libmatroska v1.4.9
Обложка : Yes
Attachments : Cover.jpg

Видео
Идентификатор : 1
Формат : HEVC
Формат/Информация : High Efficiency Video Coding
Профиль формата : Main 10@L4@Main
Идентификатор кодека : V_MPEGH/ISO/HEVC
Продолжительность : 59 м. 18 с.
Битрейт : 4500 Кбит/сек
Ширина : 1920 пикселей
Высота : 1080 пикселей
Соотношение сторон : 16:9
Режим частоты кадров : Постоянный
Частота кадров : 23,976 (24000/1001) кадра/сек
Цветовое пространство : YUV
Субдискретизация насыщенности : 4:2:0 (Type 2)
Битовая глубина : 10 бит
Бит/(Пиксели*Кадры) : 0.078
Размер потока : 1,62 Гбайт (74%)
Язык : English
Default : Да
Forced : Нет
Цветовой диапазон : Limited
Основные цвета : BT.2020
Характеристики трансфера : SMPTE ST 2084
Коэффициенты матрицы : BT.2020 non-constant
MasteringDisplay_ColorPrimaries : R: x=0.680000 y=0.320000, G: x=0.265000 y=0.690000, B: x=0.150000 y=0.060000, White point: x=0.312700 y=0.329000
MasteringDisplay_Luminance : min: 0.0020 cd/m2, max: 1000.0000 cd/m2
MaxCLL : 1190 cd/m2
MaxFALL : 432 cd/m2

Аудио #1
Идентификатор : 2
Формат : E-AC-3
Формат/Информация : Audio Coding 3
Параметр Endianness формата : Big
Идентификатор кодека : A_EAC3
Продолжительность : 59 м. 18 с.
Вид битрейта : Постоянный
Битрейт : 640 Кбит/сек
Каналы : 6 каналов
Расположение каналов : Front: L C R, Side: L R, LFE
Частота : 48,0 КГц
Частота кадров : 187,500 кадров/сек (256 spf)
Метод сжатия : С потерями
Размер потока : 271 Мбайт (12%)
Заголовок : Pifagor
Язык : Russian
Default : Да
Forced : Нет

Аудио #2
Идентификатор : 3
Формат : E-AC-3
Формат/Информация : Audio Coding 3
Параметр Endianness формата : Big
Идентификатор кодека : A_EAC3
Продолжительность : 59 м. 18 с.
Вид битрейта : Постоянный
Битрейт : 640 Кбит/сек
Каналы : 6 каналов
Расположение каналов : Front: L C R, Side: L R, LFE
Частота : 48,0 КГц
Частота кадров : 187,500 кадров/сек (256 spf)
Метод сжатия : С потерями
Размер потока : 271 Мбайт (12%)
Заголовок : Eng
Язык : English
Default : Нет
Forced : Нет

Текст #1
Идентификатор : 4
Формат : UTF-8
Идентификатор кодека : S_TEXT/UTF8
Идентификатор кодека/Информация : UTF-8 Plain Text
Заголовок : Rus forced
Язык : Russian
Default : Да
Forced : Нет

Текст #2
Идентификатор : 5
Формат : UTF-8
Идентификатор кодека : S_TEXT/UTF8
Идентификатор кодека/Информация : UTF-8 Plain Text
Заголовок : Russian
Язык : Russian
Default : Нет
Forced : Нет

Текст #3
Идентификатор : 6
Формат : UTF-8
Идентификатор кодека : S_TEXT/UTF8
Идентификатор кодека/Информация : UTF-8 Plain Text
Заголовок : English
Язык : English
Default : Нет
Forced : Нет

pb.wtf



Скачать Академия «Амбрелла» через торрент https://b.radikal.ru/b08/1902/51/10e9b0470c7b.jpg Скачать фильм Академия «Амбрелла» через торрент бесплантно в хорошем качестве Описание: Действие разворачивается в альтернативной вселенной. В середине 20-го века 43 женщины, которые до этого не были беременны, ... 9.3 10 11
Info! Золотая раздача, скачанное не засчитывается.
Торрент: Зарегистрирован [2019-02-17 18:39] · скачан: 197 раз
Статус: √ проверено
Размер: 21.72 GB
Как cкачать? Как скачать Академия «Амбрелла» через торрент | qTorrent

% Раздел Тема Автор DL S | L
Зарубежные сериалы [ 25.71 GB ] Академия «Амбрелла» / The Umbrella Academy / Сезон: 2 / Серии: 1-10 из 10 [2020 WEB-DL 1080p] MVO [NewStudio] bober100 Скачать
2 | 0
Зарубежные сериалы [ 19.44 GB ] Академия «Амбрелла» / The Umbrella Academy / Сезон: 1 / Серии: 1-10 из 10 [2019 WEBRip 720p] MVO [LostFilm] bober100 Скачать
4 | 0
Зарубежные сериалы [ 40.11 GB ] Академия «Амбрелла» / The Umbrella Academy / Сезон: 1 / Серии: 1-10 из 10 [2019 WEBRip 1080p] MVO [LostFilm] bober100 Скачать
2 | 0
Зарубежные сериалы [ 24.86 GB ] Академия «Амбрелла» / The Umbrella Academy / Сезон: 2 / Серии: 1-10 из 10 [2020 WEB-DL 1080p] MVO [LostFilm] bober100 Скачать
1 | 1
Зарубежные сериалы [ 10.1 GB ] Академия «Амбрелла» / The Umbrella Academy / Сезон: 2 / Серии: 1-10 из 10 [2020 WEB-DL 720p] DUB [Пифагор / Netflix] bober100 Скачать
9 | 0
Зарубежные сериалы [ 6.02 GB ] Академия «Амбрелла» / The Umbrella Academy / Сезон: 2 / Серии: 1-10 из 10 [2020 WEB-DLRip] DUB [Пифагор / Netflix] bober100 Скачать
9 | 0
Зарубежные сериалы [ 25.71 GB ] Академия «Амбрелла» / The Umbrella Academy / Сезон: 2 / Серии: 1-10 из 10 [2020 WEB-DL 1080p] DUB [Пифагор / Netflix] bober100 Скачать
8 | 1


Последний раз редактировалось: bober100 (2019-02-18 04:14), всего редактировалось 1 раз

28-11-2019 20:33  

Отключить всю рекламу на сайте

17-02-2019 18:48 Академия «Амбрелла» Скачать торрент  

1й и 3й скрины одинаковые pb.wtf



19-02-2019 03:09 Академия «Амбрелла» Скачать торрент  

рэйтинг завышен муть а не фильм pb.wtf



19-02-2019 16:42 Академия «Амбрелла» Скачать торрент  

ImDb 8.5 откуда тут 9.4????pb.wtf



    Дорогой пользователь! Огромная просьба, поблагодарите релизера, оцените раздачу и оставьте свои комментарий, если Вы скачали Академия «Амбрелла» через торрент бесплатно! Внесите свою лепту в развитие PiratBit!
    Комментировать посты могут только пользователи прошедшие не сложную регистрацию
    Показать сообщения:    

    Академия «Амбрелла» через торрент
    Скачать бесплатно Академия «Амбрелла»
    Академия «Амбрелла» скачать торрент
    Академия «Амбрелла» смотреть онлайн
    Cкачать фильм Академия «Амбрелла» бесплатно
    Академия «Амбрелла» скачать торрент в хорошем качестве
    Академия «Амбрелла» смотреть онлайн бесплатно в хорошем качестве


    Вы не можете начинать темы
    Вы не можете отвечать на сообщения
    Вы не можете редактировать свои сообщения
    Вы не можете удалять свои сообщения
    Вы не можете голосовать в опросах
    Вы не можете прикреплять файлы к сообщениям
    Вы можете скачивать файлы