Ссылка на приватное зеркало всего за 1$. Внимание количество ограничено!!!


iTunes

1+1

iTunes

мы

WEB-DL

1

iTunes

Чернобыль

iTunes

Ральф против интернета

Лицензия

ПШазам

Лицензия

Оно 2

WEB-DL

30
pack

Вам бонус

ВАЖНО

!!Акция!!

Alien_RageХит недели

RePack

Resident Evil 21

ИГРА 18+

pack

RePack

jed

!!Акция!!

Alien_Rage

RePack

fifa19

RePack

Assassins Creed: Odyssey

RePack

NEED FOR SPEED™ PAYBACK

4 сезон

9 сезон

Бесстыжие 9 сезон

Все сериалы

все сериалы на PB.wtf

RePack

FAR CRY 5
Ребята, катастрофически не хватает 1900р. для оплаты серверов за Октябрь (всвязи с блокировками трафик упал в 3 раза), 1-2р., выручайте.
  

Не волнуйся, он далеко не уйдет / Don't Worry, He Won't Get Far on Foot (Гас Ван Сент) [2018, драма, комедия, биография, BDRip-AVC] MVO [HDrezka Studio] +DVO [iTunes] pb.wtf

Не волнуйся, он далеко не уйдет через торрент pb.wtf

Размер: 2.47 GB | Добавлен: 9 мес. назад | Торрент скачан:128 раз
Скачать  

18-02-2019 05:16 Не волнуйся, он далеко не уйдет Скачать торрент  

Не волнуйся, он далеко не уйдет / Don't Worry, He Won't Get Far on Foot
Год выпуска: 2018
Страна: США, Франция
Жанр: драма, комедия, биография
Продолжительность: 01:54:20
Перевод:

Профессиональный (двухголосый, закадровый) | iTunes
Профессиональный многоголосый | HDRezka Studio

Субтитры: Русские (полные), Английские (полные, SDH)

Режиссер: Гас Ван Сент

rating

В ролях:

Хоакин Феникс, Джона Хилл, Руни Мара, Джек Блэк, Тони Гринхэнд, Бет Дитто, Марк Веббер, Ронни Адриан, Ким Гордон, Удо Кир

Описание:

Джон не умел вовремя останавливаться, когда дело касалось быстрой езды, красивых женщин и опасных шуток. Прихватив случайного приятеля на вечеринке, он садится в машину и чудом остаётся в живых. С этого момента начинается горькая и вдохновляющая, правдивая и трогательная история человека, который потерял все, и вынужден двигаться дальше, чтобы обрести себя как одного из самых талантливых художников-карикатуристов Америки.

Качество: BDRip-AVC
Формат: MKV

Видео: 1024x576 (16:9), 23,976 fps, x264 ~2 259 kbps avg, 0.160 bit/pixel
Аудио#1: 48 kHz, AC3 Dolby Digital, 2 (L,R) ch, ~192.00 kbps avg | RUS (iTunes)
Аудио#2: 48 kHz, AC3 Dolby Digital, 2 (L,R) ch, ~192.00 kbps avg | RUS (HDRezka Studio)
Аудио#3: 48 kHz, AC3 Dolby Digital, 3/2 (L,C,R,l,r) + LFE ch, ~448.00 kbps avg | ENG
скриншот  скриншот  скриншот  скриншот  скриншот  

Общее
Уникальный идентификатор : 161533523440872070108125829615310284711 (0x7986399866D569E4D67BB5D1B8BB27A7)
Полное имя : F:OlLanDGroupDon't.Worry.He.Won't.Get.Far.on.Foot.2018.BDRip(AVC).OlLanDGroup.mkv
Формат : Matroska
Версия формата : Version 4 / Version 2
Размер файла : 2,47 Гбайт
Продолжительность : 1 ч. 54 м.
Общий поток : 3092 Кбит/сек
Название фильма : Don't.Worry.He.Won't.Get.Far.on.Foot.2018 #TorpedoUK#
Дата кодирования : UTC 2019-02-18 04:57:46
Программа кодирования : mkvmerge v29.0.0 ('Like It Or Not') 64-bit
Библиотека кодирования : libebml v1.3.6 + libmatroska v1.4.9

Видео
Идентификатор : 1
Формат : AVC
Формат/Информация : Advanced Video Codec
Профиль формата : High@L4.1
Параметр CABAC формата : Да
Параметр ReFrames формата : 10 кадров
Идентификатор кодека : V_MPEG4/ISO/AVC
Продолжительность : 1 ч. 54 м.
Битрейт : 2259 Кбит/сек
Ширина : 1024 пикселя
Высота : 576 пикселей
Соотношение сторон : 16:9
Режим частоты кадров : Постоянный
Частота кадров : 23,976 (24000/1001) кадра/сек
Цветовое пространство : YUV
Субдискретизация насыщенности : 4:2:0
Битовая глубина : 8 бит
Тип развёртки : Прогрессивная
Бит/(Пиксели*Кадры) : 0.160
Размер потока : 1,80 Гбайт (73%)
Библиотека кодирования : x264 core 146 r2538 121396c
Настройки программы : cabac=1 / ref=10 / deblock=1:-3:-3 / analyse=0x3:0x113 / me=umh / subme=11 / psy=1 / psy_rd=1.00:0.03 / mixed_ref=1 / me_range=48 / chroma_me=1 / trellis=2 / 8x8dct=1 / cqm=0 / deadzone=21,11 / fast_pskip=1 / chroma_qp_offset=-3 / threads=6 / lookahead_threads=1 / sliced_threads=0 / nr=0 / decimate=1 / interlaced=0 / bluray_compat=0 / constrained_intra=0 / bframes=10 / b_pyramid=2 / b_adapt=2 / b_bias=0 / direct=3 / weightb=1 / open_gop=0 / weightp=2 / keyint=240 / keyint_min=23 / scenecut=40 / intra_refresh=0 / rc_lookahead=40 / rc=2pass / mbtree=0 / bitrate=2259 / ratetol=1.0 / qcomp=0.60 / qpmin=0 / qpmax=69 / qpstep=4 / cplxblur=20.0 / qblur=0.5 / vbv_maxrate=50000 / vbv_bufsize=62500 / nal_hrd=none / filler=0 / ip_ratio=1.40 / pb_ratio=1.30 / aq=1:1.00
Язык : English
Default : Да
Forced : Нет

Аудио #1
Идентификатор : 2
Формат : AC-3
Формат/Информация : Audio Coding 3
Расширение режима : CM (complete main)
Параметр Endianness формата : Big
Идентификатор кодека : A_AC3
Продолжительность : 1 ч. 54 м.
Вид битрейта : Постоянный
Битрейт : 192 Кбит/сек
Каналы : 2 канала
Расположение каналов : Front: L R
Частота : 48,0 КГц
Частота кадров : 31,250 кадров/сек (1536 spf)
Битовая глубина : 16 бит
Метод сжатия : С потерями
Размер потока : 157 Мбайт (6%)
Заголовок : DVO [iTunes]
Язык : Russian
Default : Да
Forced : Нет

Аудио #2
Идентификатор : 3
Формат : AC-3
Формат/Информация : Audio Coding 3
Расширение режима : CM (complete main)
Параметр Endianness формата : Big
Идентификатор кодека : A_AC3
Продолжительность : 1 ч. 54 м.
Вид битрейта : Постоянный
Битрейт : 192 Кбит/сек
Каналы : 2 канала
Расположение каналов : Front: L R
Частота : 48,0 КГц
Частота кадров : 31,250 кадров/сек (1536 spf)
Битовая глубина : 16 бит
Метод сжатия : С потерями
Размер потока : 157 Мбайт (6%)
Заголовок : MVO [HDRezka Studio]
Язык : Russian
Default : Нет
Forced : Нет

Аудио #3
Идентификатор : 4
Формат : AC-3
Формат/Информация : Audio Coding 3
Расширение режима : CM (complete main)
Параметр Endianness формата : Big
Идентификатор кодека : A_AC3
Продолжительность : 1 ч. 54 м.
Вид битрейта : Постоянный
Битрейт : 448 Кбит/сек
Каналы : 6 каналов
Расположение каналов : Front: L C R, Side: L R, LFE
Частота : 48,0 КГц
Частота кадров : 31,250 кадров/сек (1536 spf)
Битовая глубина : 16 бит
Метод сжатия : С потерями
Размер потока : 366 Мбайт (14%)
Заголовок : [Original]
Язык : English
Default : Нет
Forced : Нет

Текст #1
Идентификатор : 5
Формат : UTF-8
Идентификатор кодека : S_TEXT/UTF8
Идентификатор кодека/Информация : UTF-8 Plain Text
Продолжительность : 1 ч. 48 м.
Битрейт : 103 бит/сек
Count of elements : 1701
Размер потока : 82,3 Кбайт (0%)
Заголовок : Full
Язык : Russian
Default : Нет
Forced : Нет

Текст #2
Идентификатор : 6
Формат : UTF-8
Идентификатор кодека : S_TEXT/UTF8
Идентификатор кодека/Информация : UTF-8 Plain Text
Продолжительность : 1 ч. 53 м.
Битрейт : 67 бит/сек
Count of elements : 1775
Размер потока : 56,0 Кбайт (0%)
Заголовок : Full
Язык : English
Default : Нет
Forced : Нет

Текст #3
Идентификатор : 7
Формат : UTF-8
Идентификатор кодека : S_TEXT/UTF8
Идентификатор кодека/Информация : UTF-8 Plain Text
Продолжительность : 1 ч. 53 м.
Битрейт : 75 бит/сек
Count of elements : 1943
Размер потока : 62,1 Кбайт (0%)
Заголовок : SDH
Язык : English
Default : Нет
Forced : Нет

Меню
00:00:00.000 : en:Chapter 1
00:07:49.760 : en:Chapter 2
00:13:09.622 : en:Chapter 3
00:21:26.076 : en:Chapter 4
00:27:13.965 : en:Chapter 5
00:35:06.479 : en:Chapter 6
00:42:30.673 : en:Chapter 7
00:48:53.555 : en:Chapter 8
00:56:36.309 : en:Chapter 9
01:02:30.496 : en:Chapter 10
01:09:25.953 : en:Chapter 11
01:17:00.282 : en:Chapter 12
01:23:36.636 : en:Chapter 13
01:31:06.544 : en:Chapter 14
01:37:58.747 : en:Chapter 15
01:46:20.832 : en:Chapter 16

pb.wtf



Скачать Не волнуйся, он далеко не уйдет через торрент http://i89.fastpic.ru/big/2018/1010/45/b77a961dd5b3a090da477aa33aa8e745.jpg Скачать фильм Не волнуйся, он далеко не уйдет через торрент бесплантно в хорошем качестве Описание: Джон не умел вовремя останавливаться, когда дело касалось быстрой езды, красивых женщин и опасных шуток. Прихватив случайного ... 10 10 3
Торрент: Зарегистрирован [2019-02-18 05:16] · скачан: 128 раз
Статус: √ проверено
Размер: 2.47 GB
Как cкачать? Как скачать Не волнуйся, он далеко не уйдет через торрент | qTorrent

28-11-2019 20:33  

Отключить всю рекламу на сайте

    Дорогой пользователь! Огромная просьба, поблагодарите релизера, оцените раздачу и оставьте свои комментарий, если Вы скачали Не волнуйся, он далеко не уйдет через торрент бесплатно! Внесите свою лепту в развитие PiratBit!
    Комментировать посты могут только пользователи прошедшие не сложную регистрацию
    Показать сообщения:    

    Не волнуйся, он далеко не уйдет через торрент
    Скачать бесплатно Не волнуйся, он далеко не уйдет
    Не волнуйся, он далеко не уйдет скачать торрент
    Не волнуйся, он далеко не уйдет смотреть онлайн
    Cкачать фильм Не волнуйся, он далеко не уйдет бесплатно
    Не волнуйся, он далеко не уйдет скачать торрент в хорошем качестве
    Не волнуйся, он далеко не уйдет смотреть онлайн бесплатно в хорошем качестве


    Вы не можете начинать темы
    Вы не можете отвечать на сообщения
    Вы не можете редактировать свои сообщения
    Вы не можете удалять свои сообщения
    Вы не можете голосовать в опросах
    Вы не можете прикреплять файлы к сообщениям
    Вы можете скачивать файлы