Ссылка на приватное зеркало всего за 1$. Внимание количество ограничено!!!

iTunes

1+1

iTunes

мы

WEB-DL

1

iTunes

Чернобыль

iTunes

Ральф против интернета

Лицензия

ПШазам

Лицензия

Оно 2

Лицензия

30
pack

Вам бонус

ВАЖНО

!!Акция!!

Alien_RageХит недели

RePack

Resident Evil 21

ИГРА 18+

pack

RePack

jed

!!Акция!!

Alien_Rage

RePack

fifa19

RePack

Assassins Creed: Odyssey

RePack

NEED FOR SPEED™ PAYBACK

3 сезон

9 сезон

Бесстыжие 9 сезон

Все сериалы

все сериалы на PB.wtf

RePack

FAR CRY 5
Ребята, катастрофически не хватает 1900р. для оплаты серверов за Октябрь (всвязи с блокировками трафик упал в 3 раза), 1-2р., выручайте.
  

Суд (Аида Манасарова, Владимир Скуйбин) [1962, СССР, драма, детектив, SATRip от AVP Studio] pb.wtf

Суд через торрент pb.wtf

Размер: 1.09 GB | Добавлен: 9 мес. назад | Торрент скачан:2 раза
Скачать  

18-02-2019 08:15 Суд Скачать торрент  

Суд
Страна: СССР
Производство: Мосфильм

Жанр: драма, детектив
Год выпуска: 1962
Продолжительность: 01:11:08

Перевод: Не требуется
Cубтитры: нет
Оригинальная аудиодорожка: русский

Режиссер: Аида Манасарова, Владимир Скуйбин

В ролях:
Николай Крючков, Олег Жаков, Виктор Кольцов (Кутаков), Павел Волков, Степан Крылов, Константин Лылов, Анатолий Чемодуров...
Об актёрах подробней

Описание:
На медведя охотились трое: старый охотник-медвежатник Семен Тетерин (Николай Ключков), начальник строительства Дудырев (Олег Жаков) и фельдшер сельского медпункта Митягин. Собаки долго гнали медведя и наконец настигли. Тетерин слышал звук гармошки, но не успел предупредить. Его крик прозвучал одновременно с выстрелом - и в результате убит человек. Началось следствие. Один из троих будет отвечать за его смерть...

Исходник: DVB
Качество видео: SATRip
Формат видео: AVI

Видео: 704x528 (4:3), 25,000 кадров/сек, XviD ~ 1992 kbps avg, 0.214 bit/pixel
Аудио: 48 kHz, Dolby Digital AC3 2.0, 192 kbps

Раздача от:
Общее
Полное имя : Sud.1962.SATRip_[New-team]_by_AVP_Studio.avi
Формат : AVI
Формат/Информация : Audio Video Interleave
Размер файла : 1,09 Гбайт
Продолжительность : 1 ч. 11 м.
Общий поток : 2194 Кбит/сек
Программа кодирования : VirtualDubMod 1.5.10.3 | www.virtualdub-fr.org || (build 2550/release)
Библиотека кодирования : VirtualDubMod build 2550/release

Видео
Идентификатор : 0
Формат : MPEG-4 Visual
Профиль формата : Advanced Simple@L5
Настройки формата : BVOP1 / Custom Matrix
Параметр BVOP формата : 1
Параметр QPel формата : Нет
Параметр GMC формата : Без точки перехода
Параметр матрицы формата : Выборочная
Идентификатор кодека : XVID
Идентификатор кодека/Подсказка : XviD
Продолжительность : 1 ч. 11 м.
Битрейт : 1992 Кбит/сек
Ширина : 704 пикселя
Высота : 528 пикселей
Соотношение сторон : 4:3
Частота кадров : 25,000 кадров/сек
Цветовое пространство : YUV
Субдискретизация насыщенности : 4:2:0
Битовая глубина : 8 бит
Тип развёртки : Прогрессивная
Метод сжатия : С потерями
Бит/(Пиксели*Кадры) : 0.214
Размер потока : 1013 Мбайт (91%)
Библиотека кодирования : XviD 73

Аудио
Идентификатор : 1
Формат : AC-3
Формат/Информация : Audio Coding 3
Коммерческое название : Dolby Digital
Идентификатор кодека : 2000
Продолжительность : 1 ч. 11 м.
Вид битрейта : Постоянный
Битрейт : 192 Кбит/сек
Каналы : 2 канала
Channel layout : L R
Частота : 48,0 КГц
Частота кадров : 31,250 кадров/сек (1536 SPF)
Битовая глубина : 16 бит
Метод сжатия : С потерями
Размер потока : 97,7 Мбайт (9%)
Выравнивание : Разделение по промежуткам
Продолжительность промежутка : 40 мс. (1,00 видеокадр)
Время предзагрузки промежутка : 500 мс
pb.wtf



Скачать Суд через торрент http://picplus.ru/img/1902/18/8e5c4d86.png Скачать фильм Суд через торрент бесплантно в хорошем качестве Описание:На медведя охотились трое: старый охотник-медвежатник Семен Тетерин (Николай Ключков), начальник строительства Дудырев (Олег ... 9 10 1
Info! Золотая раздача, скачанное не засчитывается.
Торрент: Зарегистрирован [2019-02-18 08:15] · скачан: 2 раз
Статус: √ проверено
Размер: 1.09 GB
Как cкачать? Как скачать Суд через торрент | qTorrent

% Раздел Тема Автор DL S | L
Фантастика [ 541 MB ] Михаил Успенский - S.T.A.L.K.E.R. Остальное - судьба [Чайцын Александр 2011mp3128 кбит/c] Trust Скачать
1 | 0
Action FPS (1st Person) [ 1.31 GB ] Prince of Persia: Warrior Within / Принц Персии: Схватка с судьбой [RepackRUАкелла] от R.G.Repacker`s BaRSSS Скачать
1 | 0
Зарубежные сериалы [ 24.22 GB ] Правосудие Декстера 12345 / Dexter 12345 [2006 HDTVRip] franz48 Скачать
1 | 0
Историческая книга [ 7.3 GB ] Карамзин Николай Михайлович. - Н. М. Карамзин: "История Государства Российского" Anonymous Скачать
1 | 0
Архив (Системы для бизнеса, офиса, научной и проектной работы) [ 459 MB ] ЛИГА:ЗАКОН - "Судебные прецеденты: Подарочное издание ко Дню ЮРИСТА!" [x64/x86] [2010 pус укр] Kosmopolis Скачать
1 | 0
Индийское кино [ 1.46 GB ] Невеста и предрассудки / Bride & Prejudice [2004 мюзикл ... DVDRip лицензия] chack Скачать
1 | 0
Кино СССР [ 2.74 GB ] Ирония судьбы или с легким паром! [1975 DVDRip] manhunt5530 Скачать
1 | 0

28-11-2019 20:33  

Отключить всю рекламу на сайте

    Дорогой пользователь! Огромная просьба, поблагодарите релизера, оцените раздачу и оставьте свои комментарий, если Вы скачали Суд через торрент бесплатно! Внесите свою лепту в развитие PiratBit!
    Комментировать посты могут только пользователи прошедшие не сложную регистрацию
    Показать сообщения:    

    Суд через торрент
    Скачать бесплатно Суд
    Суд скачать торрент
    Суд смотреть онлайн
    Cкачать фильм Суд бесплатно
    Суд скачать торрент в хорошем качестве
    Суд смотреть онлайн бесплатно в хорошем качестве


    Вы не можете начинать темы
    Вы не можете отвечать на сообщения
    Вы не можете редактировать свои сообщения
    Вы не можете удалять свои сообщения
    Вы не можете голосовать в опросах
    Вы не можете прикреплять файлы к сообщениям
    Вы можете скачивать файлы