Ссылка на приватное зеркало нашего сайта всего за 1$. Внимание количество ограничено!!!

2 сезон

iTunes

1 сезон

1

2 сезон

2 сезон

iTunes

1 сезон

RePack

30

Ultimate

ВАЖНО

ИГРА 18+

pack

RePack

MK11
pack

Забери бонус

RePack

jed

!!Акция!!

Alien_Rage

RePack

fifa19

RePack

Assassins Creed: Odyssey

RePack

NEED FOR SPEED™ PAYBACK

4 сезон

9 сезон

Бесстыжие 9 сезон

Все сериалы

все сериалы на PB.wtf

RePack

FAR CRY 5
  

Свидетель обвинения / The Witness for the Prosecution / Сезон: 1 / Серии: 1-2 из 2 (Джулиан Джаррольд) [2016, триллер, драма, криминал, детектив, BDRip 1080p] MVO [SDI Media] pb.wtf

Свидетель обвинения через торрент pb.wtf

Размер: 8.9 GB | Добавлен: 1 год 9 мес. назад | Торрент скачан:14 раз
Скачать  

18-02-2019 13:56 Свидетель обвинения Скачать торрент  

Свидетель обвинения / The Witness for the Prosecution

Год выпуска: 2016
Страна: Великобритания, США
Жанр: Триллер, драма, криминал, детектив
Продолжительность: 2х ~ 00:60:00
Перевод: Профессиональный (многоголосый закадровый) | SDI Media
Субтитры: Нет

Режиссер: Джулиан Джаррольд

В ролях:

Билли Хоул, Ким Кэтролл, Моника Долан, Андреа Райзборо, Тоби Джонс, Роберт Ист, Дэвид Хэйг, Пол Рэди и др.

Описание:

В Лондоне 1920-х годов происходит жестокое убийство светской дамы Эмили Френч. Все улики указывают на юного проходимца Леонарда Воула, который убил богатую наследницу, чтобы завладеть ее состоянием. По крайней мере, такую историю рассказывает в суде домоправительница убитой. Однако Леонард уверен, что загадочная хористка Ромейн может доказать его невиновность.



Сэмпл

Качество: BDRip 1080p | YELLOWBiRD
Контейнер: MKV

Видео: AVC, 1920x1080 (16:9), 23.976 fps, 8730 Kbps
Аудио 1: AC3, 48 KHz, 2 ch, 192 kbps (SDI Media)
Аудио 2: DTS, 48 KHz, 6 ch, 1509 kbps (Original)
Complete name : D:\The.Witness.for.the.Prosecution.S01E01E02.1080p.mkv
Format : Matroska
Format version : Version 4 / Version 2
File size : 8.90 GiB
Duration : 2 h 2 min
Overall bit rate : 10.4 Mb/s
Encoded date : UTC 2019-02-18 13:05:37
Writing application : mkvmerge v9.9.0 ('Pick Up') 32bit
Writing library : libebml v1.3.4 + libmatroska v1.4.5

Video
ID : 1
Format : AVC
Format/Info : Advanced Video Codec
Format profile : High@L4.1
Format settings : CABAC / 4 Ref Frames
Format settings, CABAC : Yes
Format settings, RefFrames : 4 frames
Codec ID : V_MPEG4/ISO/AVC
Duration : 2 h 2 min
Bit rate : 8 730 kb/s
Width : 1 920 pixels
Height : 1 080 pixels
Display aspect ratio : 16:9
Frame rate mode : Constant
Frame rate : 23.976 (24000/1001) FPS
Color space : YUV
Chroma subsampling : 4:2:0
Bit depth : 8 bits
Scan type : Progressive
Bits/(Pixel*Frame) : 0.176
Stream size : 7.45 GiB (84%)
Writing library : x264 core 152 r2851 ba24899
Encoding settings : cabac=1 / ref=4 / deblock=1:-3:-3 / analyse=0x3:0x113 / me=umh / subme=8 / psy=1 / psy_rd=1.00:0.25 / mixed_ref=1 / me_range=24 / chroma_me=1 / trellis=1 / 8x8dct=1 / cqm=0 / deadzone=21,11 / fast_pskip=1 / chroma_qp_offset=-4 / threads=30 / lookahead_threads=5 / sliced_threads=0 / nr=0 / decimate=1 / interlaced=0 / bluray_compat=0 / constrained_intra=0 / bframes=3 / b_pyramid=2 / b_adapt=1 / b_bias=0 / direct=3 / weightb=1 / open_gop=0 / weightp=2 / keyint=240 / keyint_min=24 / scenecut=40 / intra_refresh=0 / rc_lookahead=50 / rc=2pass / mbtree=1 / bitrate=8730 / ratetol=1.0 / qcomp=0.60 / qpmin=0 / qpmax=69 / qpstep=4 / cplxblur=20.0 / qblur=0.5 / ip_ratio=1.40 / aq=1:0.75
Language : English
Default : Yes
Forced : No

Audio #1
ID : 2
Format : AC-3
Format/Info : Audio Coding 3
Format settings, Endianness : Big
Codec ID : A_AC3
Duration : 2 h 2 min
Bit rate mode : Constant
Bit rate : 192 kb/s
Channel(s) : 2 channels
Channel positions : Front: L R
Sampling rate : 48.0 kHz
Frame rate : 31.250 FPS (1536 SPF)
Bit depth : 16 bits
Compression mode : Lossy
Stream size : 168 MiB (2%)
Title : MVO (SDI Media)
Language : Russian
Service kind : Complete Main
Default : Yes
Forced : No

Audio #2
ID : 3
Format : DTS
Format/Info : Digital Theater Systems
Mode : 16
Format settings, Endianness : Big
Codec ID : A_DTS
Duration : 2 h 2 min
Bit rate mode : Constant
Bit rate : 1 509 kb/s
Channel(s) : 6 channels
Channel positions : Front: L C R, Side: L R, LFE
Sampling rate : 48.0 kHz
Frame rate : 93.750 FPS (512 SPF)
Bit depth : 24 bits
Compression mode : Lossy
Stream size : 1.29 GiB (14%)
Title : Original
Language : English
Default : No
Forced : No

Menu
00:00:00.000 : en:00:00:00.000
00:16:36.996 : en:00:16:36.996
00:27:14.800 : en:00:27:14.800
00:37:27.454 : en:00:37:27.454
00:51:27.459 : en:00:51:27.459
01:01:33.231 : en:01:01:33.231
01:10:13.042 : en:01:10:13.042
01:22:50.674 : en:01:22:50.674
01:33:22.639 : en:01:33:22.639
01:45:05.382 : en:01:45:05.382
01:53:53.827 : en:01:53:53.827
02:01:31.576 : en:02:01:31.576
pb.wtf



Скачать Свидетель обвинения через торрент http://c.radikal.ru/c23/1902/8a/f20ff20fbbbc.jpg Скачать фильм Свидетель обвинения через торрент бесплантно в хорошем качестве Описание: В Лондоне 1920-х годов происходит жестокое убийство светской дамы Эмили Френч. Все улики указывают на юного проходимца Леонарда ... 10 10 2
Торрент: Зарегистрирован [2019-02-18 13:56] · скачан: 14 раз
Статус: √ проверено
Размер: 8.9 GB
Как cкачать? Как скачать Свидетель обвинения через торрент | qTorrent

28-11-2019 20:33  

Отключить всю рекламу на сайте

    Дорогой пользователь! Огромная просьба, поблагодарите релизера, оцените раздачу и оставьте свои комментарий, если Вы скачали Свидетель обвинения через торрент бесплатно! Внесите свою лепту в развитие PiratBit!
    Комментировать посты могут только пользователи прошедшие не сложную регистрацию
    Показать сообщения:    

    Свидетель обвинения через торрент
    Скачать бесплатно Свидетель обвинения
    Свидетель обвинения скачать торрент
    Свидетель обвинения смотреть онлайн
    Cкачать фильм Свидетель обвинения бесплатно
    Свидетель обвинения скачать торрент в хорошем качестве
    Свидетель обвинения смотреть онлайн бесплатно в хорошем качестве


    Вы не можете начинать темы
    Вы не можете отвечать на сообщения
    Вы не можете редактировать свои сообщения
    Вы не можете удалять свои сообщения
    Вы не можете голосовать в опросах
    Вы не можете прикреплять файлы к сообщениям
    Вы можете скачивать файлы