Ссылка на приватное зеркало нашего сайта всего за 1$. Внимание количество ограничено!!!

2 сезон

iTunes

1 сезон

1

2 сезон

2 сезон

iTunes

1 сезон

RePack

30

Ultimate

ВАЖНО

ИГРА 18+

pack

RePack

MK11
pack

Забери бонус

RePack

jed

!!Акция!!

Alien_Rage

RePack

fifa19

RePack

Assassins Creed: Odyssey

RePack

NEED FOR SPEED™ PAYBACK

4 сезон

9 сезон

Бесстыжие 9 сезон

Все сериалы

все сериалы на PB.wtf

RePack

FAR CRY 5
  

Интервью с Богом / An Interview with God (Перри Лэнг) [2018, драма, детектив, WEB-DL 720p] DUB [iTunes] pb.wtf

Интервью с Богом через торрент pb.wtf

Размер: 3.03 GB | Добавлен: 1 год 9 мес. назад | Торрент скачан:82 раза
Скачать  

18-02-2019 15:37 Интервью с Богом Скачать торрент  

Интервью с Богом / An Interview with God Год выпуска: 2018
Страна: США
Жанр: драма, детектив
Продолжительность: 01:36:46
Перевод: Дублированный | iTunes
Субтитры: Нет

Режиссер: Перри Лэнг

rating

В ролях:

Брентон Туэйтс (Paul Asher), Дэвид Стрэтэйрн (The Man), Яэль Гробглас (Sarah Asher), Хилл Харпер (Gary), Чарлби Дин Крик (Grace), Бобби Ди Чикко (Bobby), Миган Кимберли Смит (Office Worker)
Описание:

История перспективного журналиста Пола, чья вера подвергается проверке при попытке взять интервью у человека, называющего себя Богом.

Качество: WEB-DL 720p
Формат: MKV

Видео: MPEG-4 AVC, 1280x530, 4011 Kbit/s, 23.976 fps
Аудио: 48 kHz, AC3, 5.1, 384 Kbps | iTunes | RUS
скриншот  скриншот  скриншот  скриншот  

Общее
Уникальный идентификатор : 250068170604624544712750336373828377573 (0xBC2160B6E1CC5C20BCD4B7D9D2385BE5)
Полное имя : D:\An.Interview.with.God.2018.WEB-DL720p.ELEKTRI4KA.UNIONGANG.mkv
Формат : Matroska
Версия формата : Version 2
Размер файла : 3,03 Гбайт
Продолжительность : 1 ч. 36 м.
Общий поток : 4484 Кбит/сек
Название фильма : ELEKTRI4KA.UNIONGANG.ORG
Дата кодирования : UTC 2019-02-18 11:03:26
Программа кодирования : mkvmerge v7.8.0 ('River Man') 32bit built on Apr 3 2015 12:11:22
Библиотека кодирования : libebml v1.3.1 + libmatroska v1.4.2

Видео
Идентификатор : 2
Формат : AVC
Формат/Информация : Advanced Video Codec
Профиль формата : Main@L3.1
Параметр CABAC формата : Нет
Параметр RefFrames формата : 2 кадра
Идентификатор кодека : V_MPEG4/ISO/AVC
Продолжительность : 1 ч. 36 м.
Битрейт : 4011 Кбит/сек
Ширина : 1280 пикселей
Высота : 530 пикселей
Соотношение сторон : 2,40:1
Режим частоты кадров : Постоянный
Частота кадров : 23,976 (24000/1001) кадра/сек
Цветовое пространство : YUV
Субдискретизация насыщенности : 4:2:0
Битовая глубина : 8 бит
Тип развёртки : Прогрессивная
Бит/(Пиксели*Кадры) : 0.247
Размер потока : 2,71 Гбайт (89%)
Язык : English
Default : Да
Forced : Нет
Цветовой диапазон : Limited
Основные цвета : BT.709
Характеристики трансфера : BT.709
Коэффициенты матрицы : BT.709

Аудио
Идентификатор : 1
Формат : AC-3
Формат/Информация : Audio Coding 3
Расширение режима : CM (complete main)
Параметр Endianness формата : Big
Идентификатор кодека : A_AC3
Продолжительность : 1 ч. 36 м.
Вид битрейта : Постоянный
Битрейт : 384 Кбит/сек
Каналы : 6 каналов
Расположение каналов : Front: L C R, Side: L R, LFE
Частота : 48,0 КГц
Частота кадров : 31,250 кадров/сек (1536 spf)
Метод сжатия : С потерями
Размер потока : 266 Мбайт (9%)
Заголовок : ELEKTRI4KA.UNIONGANG.ORG
Язык : Russian
Default : Да
Forced : Нет

pb.wtf



Скачать Интервью с Богом через торрент https://i109.fastpic.ru/big/2019/0207/9e/bea06e222b49157e885e1bef39e6c79e.jpg Скачать фильм Интервью с Богом через торрент бесплантно в хорошем качестве Описание: История перспективного журналиста Пола, чья вера подвергается проверке при попытке взять интервью у человека, называющего себя ... 10 10 3
Info! Золотая раздача, скачанное не засчитывается.
Торрент: Зарегистрирован [2019-02-18 15:37] · скачан: 82 раз
Статус: √ проверено
Размер: 3.03 GB
Как cкачать? Как скачать Интервью с Богом через торрент | qTorrent

% Раздел Тема Автор DL S | L
Фильмы (Blu-ray, BD-Remux, HDDVD) [ 13.78 GB ] Интервью с Богом / An Interview with God [2018 BD Remux 1080p] bober100 Скачать
1 | 0
Фильмы 2018 [DVDrip, WEB-DLRip, HDrip] (DUB, MVO) [ 1.42 GB ] Интервью с Богом / An Interview with God [2018 BDRip] bober100 Скачать
1 | 0
Фильмы (WEB-DL 720p, 1080p) [ 3.37 GB ] Интервью с Богом / An Interview with God [2018 WEB-DL 1080p] bober100 Скачать
1 | 0

28-11-2019 20:33  

Отключить всю рекламу на сайте

    Дорогой пользователь! Огромная просьба, поблагодарите релизера, оцените раздачу и оставьте свои комментарий, если Вы скачали Интервью с Богом через торрент бесплатно! Внесите свою лепту в развитие PiratBit!
    Комментировать посты могут только пользователи прошедшие не сложную регистрацию
    Показать сообщения:    

    Интервью с Богом через торрент
    Скачать бесплатно Интервью с Богом
    Интервью с Богом скачать торрент
    Интервью с Богом смотреть онлайн
    Cкачать фильм Интервью с Богом бесплатно
    Интервью с Богом скачать торрент в хорошем качестве
    Интервью с Богом смотреть онлайн бесплатно в хорошем качестве


    Вы не можете начинать темы
    Вы не можете отвечать на сообщения
    Вы не можете редактировать свои сообщения
    Вы не можете удалять свои сообщения
    Вы не можете голосовать в опросах
    Вы не можете прикреплять файлы к сообщениям
    Вы можете скачивать файлы