Ссылка на приватное зеркало нашего сайта всего за 1$. Внимание количество ограничено!!!

2 сезон

iTunes

1 сезон

1

2 сезон

2 сезон

iTunes

1 сезон

RePack

30

Новинка

ВАЖНО

ИГРА 18+

pack

RePack

MK11
pack

Забери бонус

RePack

jed

!!Акция!!

Alien_Rage

RePack

fifa19

RePack

Assassins Creed: Odyssey

RePack

NEED FOR SPEED™ PAYBACK

4 сезон

9 сезон

Бесстыжие 9 сезон

Все сериалы

все сериалы на PB.wtf

RePack

FAR CRY 5
  

Обратные дороги / Back Roads (Алекс Петтифер) [2018, Триллер, драма, WEB-DL 1080p] MVO [HDRezka Studio] pb.wtf

Обратные дороги через торрент pb.wtf

Размер: 4.87 GB | Добавлен: 1 год 9 мес. назад | Торрент скачан:126 раз
Скачать  

18-02-2019 15:54 Обратные дороги Скачать торрент  

Обратные дороги / Back Roads Год выпуска: 2018
Страна: США
Жанр: Триллер, драма
Продолжительность: 01:41:08
Перевод: Профессиональный (многоголосый) | HDRezka Studio
Субтитры: Русские (Focs), английские

Режиссер: Алекс Петтифер

rating

В ролях:

Джульетт Льюис, Дженнифер Моррисон, Никола Пельтц, Алекс Петтифер, Даника Ярош, Роберт Патрик, Том Эверетт Скотт, Роберт Лонгстрит, Кьяра Аурелия, Скай Элобар

Описание:

Харли Алтмайер с трудом воспитывает своих младших сестёр после ужасного происшествия: их отец застрелен, а мать находится в тюрьме, обвинённая в убийстве мужа. Харли заводит роман с Калли Мерсер, замужней матерью двоих детей, но его жизнь окончательно усложняется, когда он становится главным подозреваемым в убийстве.

Качество: WEB-DL 1080p
Формат: MKV

Видео: MPEG-4 AVC, 5937 Kбит/с, 1920x1040, 23.976 кадр/с
Аудио#1: Русский ( АС3, 2ch, 192 Кбит/с, 48.0 KHz) Профессиональный (многоголосый, закадровый) HDRezka Studio 2.0
Аудио#2: Русский ( АС3, 6ch, 384 Кбит/с, 48.0 KHz) Профессиональный (многоголосый, закадровый) HDRezka Studio 5.1
Аудио#3: Английский ( АС3, 6ch, 384 Кбит/с, 48.0 KHz)
скриншот  скриншот  скриншот  скриншот  

Общее
Уникальный идентификатор : 175194702228901771713332303880902502576 (0x83CD45B63E54401CA646625EF11168B0)
Полное имя : D:\Back.Roads.2018.WEB-DL.1080p.mkv
Формат : Matroska
Версия формата : Version 4 / Version 2
Размер файла : 4,87 Гбайт
Продолжительность : 1 ч. 41 м.
Общий поток : 6899 Кбит/сек
Дата кодирования : UTC 2019-02-18 13:41:30
Программа кодирования : mkvmerge v7.1.0 ('Good Love') 64bit built on Jul 27 2014 13:06:55
Библиотека кодирования : libebml v1.3.0 + libmatroska v1.4.1

Видео
Идентификатор : 1
Формат : AVC
Формат/Информация : Advanced Video Codec
Профиль формата : High@L4
Параметр CABAC формата : Да
Параметр RefFrames формата : 4 кадра
Идентификатор кодека : V_MPEG4/ISO/AVC
Продолжительность : 1 ч. 41 м.
Вид битрейта : Постоянный
Битрейт : 5937 Кбит/сек
Номинальный битрейт : 10000 Кбит/сек
Ширина : 1920 пикселей
Высота : 1040 пикселей
Соотношение сторон : 1,85:1
Режим частоты кадров : Постоянный
Частота кадров : 23,976 (24000/1001) кадра/сек
Цветовое пространство : YUV
Субдискретизация насыщенности : 4:2:0
Битовая глубина : 8 бит
Тип развёртки : Прогрессивная
Бит/(Пиксели*Кадры) : 0.121
Размер потока : 4,10 Гбайт (84%)
Язык : English
Default : Да
Forced : Нет
Цветовой диапазон : Limited
Основные цвета : BT.709
Характеристики трансфера : BT.709
Коэффициенты матрицы : BT.709

Аудио #1
Идентификатор : 2
Формат : AC-3
Формат/Информация : Audio Coding 3
Расширение режима : CM (complete main)
Параметр Endianness формата : Big
Идентификатор кодека : A_AC3
Продолжительность : 1 ч. 41 м.
Вид битрейта : Постоянный
Битрейт : 192 Кбит/сек
Каналы : 2 канала
Расположение каналов : Front: L R
Частота : 48,0 КГц
Частота кадров : 31,250 кадров/сек (1536 spf)
Метод сжатия : С потерями
Размер потока : 139 Мбайт (3%)
Заголовок : MVO | HDRezka Studio 2.0
Язык : Russian
Default : Да
Forced : Нет

Аудио #2
Идентификатор : 3
Формат : AC-3
Формат/Информация : Audio Coding 3
Расширение режима : CM (complete main)
Параметр Endianness формата : Big
Идентификатор кодека : A_AC3
Продолжительность : 1 ч. 41 м.
Вид битрейта : Постоянный
Битрейт : 384 Кбит/сек
Каналы : 6 каналов
Расположение каналов : Front: L C R, Side: L R, LFE
Частота : 48,0 КГц
Частота кадров : 31,250 кадров/сек (1536 spf)
Метод сжатия : С потерями
Размер потока : 278 Мбайт (6%)
Заголовок : MVO | HDRezka Studio 5.1
Язык : Russian
Default : Нет
Forced : Нет

Аудио #3
Идентификатор : 4
Формат : AC-3
Формат/Информация : Audio Coding 3
Расширение режима : CM (complete main)
Параметр Endianness формата : Big
Идентификатор кодека : A_AC3
Продолжительность : 1 ч. 41 м.
Вид битрейта : Постоянный
Битрейт : 384 Кбит/сек
Каналы : 6 каналов
Расположение каналов : Front: L C R, Side: L R, LFE
Частота : 48,0 КГц
Частота кадров : 31,250 кадров/сек (1536 spf)
Метод сжатия : С потерями
Размер потока : 278 Мбайт (6%)
Язык : English
Default : Нет
Forced : Нет

Текст #1
Идентификатор : 5
Формат : UTF-8
Идентификатор кодека : S_TEXT/UTF8
Идентификатор кодека/Информация : UTF-8 Plain Text
Заголовок : Focs
Язык : Russian
Default : Нет
Forced : Нет

Текст #2
Идентификатор : 6
Формат : UTF-8
Идентификатор кодека : S_TEXT/UTF8
Идентификатор кодека/Информация : UTF-8 Plain Text
Заголовок : SDH
Язык : English
Default : Нет
Forced : Нет

Меню
00:00:00.000 : en:Chapter 1
00:12:32.752 : en:Chapter 2
00:20:27.226 : en:Chapter 3
00:29:41.780 : en:Chapter 4
00:40:20.418 : en:Chapter 5
00:50:29.026 : en:Chapter 6
00:59:55.592 : en:Chapter 7
01:12:00.316 : en:Chapter 8
01:22:40.956 : en:Chapter 9
01:35:23.718 : en:Chapter 10

pb.wtf



Скачать Обратные дороги через торрент http://b.radikal.ru/b05/1902/c6/931591aa637b.jpg Скачать фильм Обратные дороги через торрент бесплантно в хорошем качестве Описание: Харли Алтмайер с трудом воспитывает своих младших сестёр после ужасного происшествия: их отец застрелен, а мать находится в ... 7.8 10 6
Торрент: Зарегистрирован [2019-02-18 15:54] · скачан: 126 раз
Статус: T временная
Размер: 4.87 GB
Как cкачать? Как скачать Обратные дороги через торрент | qTorrent

% Раздел Тема Автор DL S | L
Фильмы 2018 [DVDrip, WEB-DLRip, HDrip] (DUB, MVO) [ 2.18 GB ] Обратные дороги / Темные дороги / Back Roads [2018 WEB-DLRip] [MVO] () killermax2013 Скачать
8 | 0
Фильмы 2018 [DVDrip, WEB-DLRip, HDrip] (DUB, MVO) [ 1.46 GB ] Обратные дороги / Back Roads [2018 WEB-DLRip] MVO bober100 Скачать
4 | 0
Фильмы (WEB-DL 720p, 1080p) [ 4.74 GB ] Обратные дороги / Back Roads [2018 WEB-DL 1080p] MVO bober100 Скачать
4 | 0
T Фильмы 2018 [DVDrip, WEB-DLRip, HDrip] (DUB, MVO) [ 1.46 GB ] Обратные дороги / Back Roads [2018 WEB-DLRip] MVO [HDRezka Studio] Леонид Ильич Скачать
2 | 0

28-11-2019 20:33  

Отключить всю рекламу на сайте

    Дорогой пользователь! Огромная просьба, поблагодарите релизера, оцените раздачу и оставьте свои комментарий, если Вы скачали Обратные дороги через торрент бесплатно! Внесите свою лепту в развитие PiratBit!
    Комментировать посты могут только пользователи прошедшие не сложную регистрацию
    Показать сообщения:    

    Обратные дороги через торрент
    Скачать бесплатно Обратные дороги
    Обратные дороги скачать торрент
    Обратные дороги смотреть онлайн
    Cкачать фильм Обратные дороги бесплатно
    Обратные дороги скачать торрент в хорошем качестве
    Обратные дороги смотреть онлайн бесплатно в хорошем качестве


    Вы не можете начинать темы
    Вы не можете отвечать на сообщения
    Вы не можете редактировать свои сообщения
    Вы не можете удалять свои сообщения
    Вы не можете голосовать в опросах
    Вы не можете прикреплять файлы к сообщениям
    Вы можете скачивать файлы