Ссылка на приватное зеркало нашего сайта всего за 1$. Внимание количество ограничено!!!

2 сезон

iTunes

1 сезон

1

2 сезон

2 сезон

iTunes

1 сезон

RePack

30

Ultimate

ВАЖНО

ИГРА 18+

pack

RePack

MK11
pack

Забери бонус

RePack

jed

!!Акция!!

Alien_Rage

RePack

fifa19

RePack

Assassins Creed: Odyssey

RePack

NEED FOR SPEED™ PAYBACK

4 сезон

9 сезон

Бесстыжие 9 сезон

Все сериалы

все сериалы на PB.wtf

RePack

FAR CRY 5
  

Nightwish - Decades (An Archive Of Song 1996-2015) (2CD) - 2018/ FLAC/ image +.cue/ lossless/ Symphonic Metal, Power Metal pb.wtf

Nightwish - Decades через торрент pb.wtf

Раздают: 1 [ 0 KB/s ]
Размер: 962 MB | Добавлен: 1 год 9 мес. назад | Торрент скачан:94 раза
Скачать  

18-02-2019 16:03 Nightwish - Decades Скачать торрент  


Nightwish - Decades (An Archive Of Song 1996-2015) (2CD)


Год издания: 2018
Страна: Finland
Жанр: Symphonic Metal, Power Metal
Продолжительность:
Лейбл издания: Nuclear Blast
Страна-выпуска диска: Germany
Номер по каталогу: NB 4057-4
Формат: FLAC
Битрейт аудио: Lossless
Тип рипа: image +.cue
Наличие сканов в содержимом раздачи: да


01. The Greatest Show On Earth (23:59)
02. Elan (4:47)
03. My Walden (4:42)
04. Storytime (5:31)
05. I Want My Tears Back (5:11)
06. Amaranth (3:58)
07. The Poet And The Pendulum (13:54)
08. Nemo (4:36)
09. Wish I Had An Angel (4:03)

01. Ghost Love Score (10:02)
02. Slaying The Dreamer (4:35)
03. End Of All Hope (4:23)
04. 10th Man Down (5:29)
05. The Kinslayer (4:10)
06. Dead Boy’s Poem (6:53)
07. Gethsemane (5:22)
08. Devil & The Deep Dark Ocean (4:46)
09. Sacrament Of Wilderness (4:15)
10. Sleeping Sun (4:33)
11. Elvenpath (4:42)
12. The Carpenter (6:00)
13. Nightwish (Demo) (5:49)

Код:

Exact Audio Copy V1.1 from 23. June 2015

EAC extraction logfile from 4. April 2018, 17:35

Nightwish / Decades - An Archive Of Song 1996-2015 Disc 1

Used drive  : TSSTcorpBDDVDW SE-506CB   Adapter: 1  ID: 1

Read mode               : Secure
Utilize accurate stream : Yes
Defeat audio cache      : Yes
Make use of C2 pointers : No

Read offset correction                      : 6
Overread into Lead-In and Lead-Out          : No
Fill up missing offset samples with silence : Yes
Delete leading and trailing silent blocks   : No
Null samples used in CRC calculations       : Yes
Used interface                              : Native Win32 interface for Win NT & 2000

Used output format              : User Defined Encoder
Selected bitrate                : 1024 kBit/s
Quality                         : High
Add ID3 tag                     : No
Command line compressor         : C:\Program Files (x86)\Exact Audio Copy\Flac\flac.exe
Additional command line options : -V -8 -T "Date=%year%" -T "Genre=%genre%" %source%

TOC of the extracted CD

     Track |   Start  |  Length  | Start sector | End sector
    ---------------------------------------------------------
        1  |  0:00.00 | 23:59.23 |         0    |   107947
        2  | 23:59.23 |  4:47.01 |    107948    |   129473
        3  | 28:46.24 |  4:41.74 |    129474    |   150622
        4  | 33:28.23 |  5:30.55 |    150623    |   175427
        5  | 38:59.03 |  5:11.13 |    175428    |   198765
        6  | 44:10.16 |  3:57.40 |    198766    |   216580
        7  | 48:07.56 | 13:54.35 |    216581    |   279165
        8  | 62:02.16 |  4:36.09 |    279166    |   299874
        9  | 66:38.25 |  4:02.62 |    299875    |   318086

Range status and errors

Selected range

     Filename C:\EAC\Nightwish - Decades - An Archive Of Song 1996-2015 Disc 1.wav

     Peak level 99.3 %
     Extraction speed 3.5 X
     Range quality 99.9 %
     Test CRC D57A4214
     Copy CRC D57A4214
     Copy OK

No errors occurred

AccurateRip summary

Track  1  accurately ripped (confidence 13)  [56A92BB6]  (AR v2)
Track  2  accurately ripped (confidence 13)  [ADD8BE1D]  (AR v2)
Track  3  accurately ripped (confidence 13)  [46A4C5C3]  (AR v2)
Track  4  accurately ripped (confidence 13)  [293685D6]  (AR v2)
Track  5  accurately ripped (confidence 13)  [58149C74]  (AR v2)
Track  6  accurately ripped (confidence 13)  [E34C0BFC]  (AR v2)
Track  7  accurately ripped (confidence 13)  [4891F709]  (AR v2)
Track  8  accurately ripped (confidence 13)  [633F5D9D]  (AR v2)
Track  9  accurately ripped (confidence 12)  [BE99C144]  (AR v2)

All tracks accurately ripped

End of status report

Код:

Exact Audio Copy V1.1 from 23. June 2015

EAC extraction logfile from 4. April 2018, 18:36

Nightwish / Decades - An Archive Of Song 1996-2015 Disc 2

Used drive  : TSSTcorpBDDVDW SE-506CB   Adapter: 1  ID: 1

Read mode               : Secure
Utilize accurate stream : Yes
Defeat audio cache      : Yes
Make use of C2 pointers : No

Read offset correction                      : 6
Overread into Lead-In and Lead-Out          : No
Fill up missing offset samples with silence : Yes
Delete leading and trailing silent blocks   : No
Null samples used in CRC calculations       : Yes
Used interface                              : Native Win32 interface for Win NT & 2000

Used output format              : User Defined Encoder
Selected bitrate                : 1024 kBit/s
Quality                         : High
Add ID3 tag                     : No
Command line compressor         : C:\Program Files (x86)\Exact Audio Copy\Flac\flac.exe
Additional command line options : -V -8 -T "Date=%year%" -T "Genre=%genre%" %source%

TOC of the extracted CD

     Track |   Start  |  Length  | Start sector | End sector
    ---------------------------------------------------------
        1  |  0:00.00 | 10:02.26 |         0    |    45175
        2  | 10:02.26 |  4:34.42 |     45176    |    65767
        3  | 14:36.68 |  4:23.30 |     65768    |    85522
        4  | 19:00.23 |  5:29.12 |     85523    |   110209
        5  | 24:29.35 |  4:09.62 |    110210    |   128946
        6  | 28:39.22 |  6:52.61 |    128947    |   159907
        7  | 35:32.08 |  5:22.16 |    159908    |   184073
        8  | 40:54.24 |  4:46.04 |    184074    |   205527
        9  | 45:40.28 |  4:14.63 |    205528    |   224640
       10  | 49:55.16 |  4:33.10 |    224641    |   245125
       11  | 54:28.26 |  4:42.15 |    245126    |   266290
       12  | 59:10.41 |  6:00.24 |    266291    |   293314
       13  | 65:10.65 |  5:48.47 |    293315    |   319461

Range status and errors

Selected range

     Filename C:\EAC\Nightwish - Decades - An Archive Of Song 1996-2015 Disc 2.wav

     Peak level 100.0 %
     Extraction speed 4.4 X
     Range quality 100.0 %
     Test CRC 36CEAB20
     Copy CRC 36CEAB20
     Copy OK

No errors occurred

AccurateRip summary

Track  1  accurately ripped (confidence 10)  [3618213E]  (AR v2)
Track  2  accurately ripped (confidence 10)  [30CD5256]  (AR v2)
Track  3  accurately ripped (confidence 10)  [62CB3C33]  (AR v2)
Track  4  accurately ripped (confidence 10)  [051BCD91]  (AR v2)
Track  5  accurately ripped (confidence 10)  [F5A2394E]  (AR v2)
Track  6  accurately ripped (confidence 10)  [F6D3C2FF]  (AR v2)
Track  7  accurately ripped (confidence 10)  [51E103D9]  (AR v2)
Track  8  accurately ripped (confidence 10)  [73066A26]  (AR v2)
Track  9  accurately ripped (confidence 10)  [984EDB51]  (AR v2)
Track 10  accurately ripped (confidence 10)  [65FB232E]  (AR v2)
Track 11  accurately ripped (confidence 10)  [8E10039B]  (AR v2)
Track 12  accurately ripped (confidence 10)  [303E8D42]  (AR v2)
Track 13  accurately ripped (confidence 10)  [A3F8D6EC]  (AR v2)

All tracks accurately ripped

End of status report

Код:

REM DATE 2018
REM DISCID 69109109
REM COMMENT "ExactAudioCopy v1.1"
PERFORMER "Nightwish"
TITLE "Decades - An Archive Of Song 1996-2015 Disc 1"
FILE "Nightwish - Decades - An Archive Of Song 1996-2015 Disc 1.flac" WAVE
  TRACK 01 AUDIO
    TITLE "The Greatest Show On Earth"
    PERFORMER "Nightwish"
    INDEX 01 00:00:00
  TRACK 02 AUDIO
    TITLE "Elan"
    PERFORMER "Nightwish"
    INDEX 01 23:59:23
  TRACK 03 AUDIO
    TITLE "My Walden"
    PERFORMER "Nightwish"
    INDEX 00 28:44:06
    INDEX 01 28:46:24
  TRACK 04 AUDIO
    TITLE "Storytime"
    PERFORMER "Nightwish"
    INDEX 00 33:24:34
    INDEX 01 33:28:23
  TRACK 05 AUDIO
    TITLE "I Want My Tears Back"
    PERFORMER "Nightwish"
    INDEX 00 38:57:27
    INDEX 01 38:59:03
  TRACK 06 AUDIO
    TITLE "Amaranth"
    PERFORMER "Nightwish"
    INDEX 00 44:07:21
    INDEX 01 44:10:16
  TRACK 07 AUDIO
    TITLE "The Poet And The Pendulum"
    PERFORMER "Nightwish"
    INDEX 00 48:03:43
    INDEX 01 48:07:56
  TRACK 08 AUDIO
    TITLE "Nemo"
    PERFORMER "Nightwish"
    INDEX 00 61:58:72
    INDEX 01 62:02:16
  TRACK 09 AUDIO
    TITLE "Wish I Had An Angel"
    PERFORMER "Nightwish"
    INDEX 00 66:35:16
    INDEX 01 66:38:25

Код:

REM DATE 2018
REM DISCID B210A30D
REM COMMENT "ExactAudioCopy v1.1"
PERFORMER "Nightwish"
TITLE "Decades - An Archive Of Song 1996-2015 Disc 2"
FILE "Nightwish - Decades - An Archive Of Song 1996-2015 Disc 2.flac" WAVE
  TRACK 01 AUDIO
    TITLE "Ghost Love Score"
    PERFORMER "Nightwish"
    INDEX 01 00:00:00
  TRACK 02 AUDIO
    TITLE "Slaying The Dreamer"
    PERFORMER "Nightwish"
    INDEX 00 10:00:14
    INDEX 01 10:02:26
  TRACK 03 AUDIO
    TITLE "End Of All Hope"
    PERFORMER "Nightwish"
    INDEX 00 14:33:68
    INDEX 01 14:36:68
  TRACK 04 AUDIO
    TITLE "10th Man Down"
    PERFORMER "Nightwish"
    INDEX 00 18:58:17
    INDEX 01 19:00:23
  TRACK 05 AUDIO
    TITLE "The Kinslayer"
    PERFORMER "Nightwish"
    INDEX 00 24:25:50
    INDEX 01 24:29:35
  TRACK 06 AUDIO
    TITLE "Dead Boy’s Poem"
    PERFORMER "Nightwish"
    INDEX 00 28:37:61
    INDEX 01 28:39:22
  TRACK 07 AUDIO
    TITLE "Gethsemane"
    PERFORMER "Nightwish"
    INDEX 00 35:29:71
    INDEX 01 35:32:08
  TRACK 08 AUDIO
    TITLE "Devil & The Deep Dark Ocean"
    PERFORMER "Nightwish"
    INDEX 00 40:52:17
    INDEX 01 40:54:24
  TRACK 09 AUDIO
    TITLE "Sacrament Of Wilderness"
    PERFORMER "Nightwish"
    INDEX 00 45:37:55
    INDEX 01 45:40:28
  TRACK 10 AUDIO
    TITLE "Sleeping Sun"
    PERFORMER "Nightwish"
    INDEX 00 49:50:72
    INDEX 01 49:55:16
  TRACK 11 AUDIO
    TITLE "Elvenpath"
    PERFORMER "Nightwish"
    INDEX 00 54:22:64
    INDEX 01 54:28:26
  TRACK 12 AUDIO
    TITLE "The Carpenter"
    PERFORMER "Nightwish"
    INDEX 00 59:06:68
    INDEX 01 59:10:41
  TRACK 13 AUDIO
    TITLE "Nightwish (Demo)"
    PERFORMER "Nightwish"
    INDEX 00 65:06:06
    INDEX 01 65:10:65






pb.wtf



Скачать Nightwish - Decades через торрент http://i110.fastpic.ru/big/2019/0218/76/a63ddefc07258cd680d244eee50d5e76.png Скачать фильм Nightwish - Decades через торрент бесплантно в хорошем качестве ... 10 10 2
Торрент: Зарегистрирован [2019-02-18 16:03] · скачан: 94 раз
Статус: √ проверено
Размер: 962 MB
Как cкачать? Как скачать Nightwish - Decades через торрент | qTorrent

28-11-2019 20:33  

Отключить всю рекламу на сайте

    Дорогой пользователь! Огромная просьба, поблагодарите релизера, оцените раздачу и оставьте свои комментарий, если Вы скачали Nightwish - Decades через торрент бесплатно! Внесите свою лепту в развитие PiratBit!
    Комментировать посты могут только пользователи прошедшие не сложную регистрацию
    Показать сообщения:    

    Nightwish - Decades через торрент
    Скачать бесплатно Nightwish - Decades
    Nightwish - Decades скачать торрент
    Nightwish - Decades смотреть онлайн
    Cкачать фильм Nightwish - Decades бесплатно
    Nightwish - Decades скачать торрент в хорошем качестве
    Nightwish - Decades смотреть онлайн бесплатно в хорошем качестве


    Вы не можете начинать темы
    Вы не можете отвечать на сообщения
    Вы не можете редактировать свои сообщения
    Вы не можете удалять свои сообщения
    Вы не можете голосовать в опросах
    Вы не можете прикреплять файлы к сообщениям
    Вы можете скачивать файлы