Ссылка на приватное зеркало всего за 1$. Внимание количество ограничено!!!

iTunes

1+1

iTunes

мы

WEB-DL

1

iTunes

Чернобыль

iTunes

Ральф против интернета

Лицензия

ПШазам

Лицензия

Оно 2

Лицензия

30
pack

Вам бонус

ВАЖНО

!!Акция!!

Alien_RageХит недели

RePack

Resident Evil 21

ИГРА 18+

pack

RePack

jed

!!Акция!!

Alien_Rage

RePack

fifa19

RePack

Assassins Creed: Odyssey

RePack

NEED FOR SPEED™ PAYBACK

3 сезон

9 сезон

Бесстыжие 9 сезон

Все сериалы

все сериалы на PB.wtf

RePack

FAR CRY 5
Ребята, катастрофически не хватает 1900р. для оплаты серверов за Октябрь (всвязи с блокировками трафик упал в 3 раза), 1-2р., выручайте.
  

Жил-был Дэдпул / Once Upon A Deadpool (Дэвид Литч) [2018, комедия, боевик, фантастика, BDRip-AVC] DUB [iTunes] pb.wtf

Жил-был Дэдпул через торрент pb.wtf

Раздают: 1 [ 0 KB/s ]
Размер: 2.18 GB | Добавлен: 9 мес. назад | Торрент скачан:257 раз
Скачать  

18-02-2019 16:19 Жил-был Дэдпул Скачать торрент  

Жил-был Дэдпул / Once Upon A Deadpool
Год выпуска: 2018
Страна: США
Жанр: комедия, боевик, фантастика
Продолжительность: 01:57:41
Перевод: Дублированный | iTunes
Субтитры: Русские (форс., полные), Английские (SDH)

Режиссер: Дэвид Литч



В ролях:

Райан Рейнольдс, Джош Бролин, Морена Баккарин, Брианна Хилдебранд, ТиДжей Миллер

Описание:

Смягчённая версия фильма «Дэдпул 2» о наемнике-мутанте и его бесшабашной команде, которая встаёт на защиту одного проблемного подростка.

Качество: BDRip-AVC
Формат: MKV

Видео: 1024x428 (2.40:1), 23,976 fps, x264 ~1 812 kbps avg, 0.172 bit/pixel
Аудио#1: 48 kHz, AC3 Dolby Digital Plus, 3/2 (L,C,R,l,r) + LFE ch, ~384.00 kbps avg | RUS (iTunes)
Аудио#2: 48 kHz, AC3 Dolby Digital Plus, 3/2 (L,C,R,l,r) + LFE ch, ~448.00 kbps avg | ENG
скриншот  скриншот  скриншот  скриншот  скриншот  

Общее
Уникальный идентификатор : 72205645858377886826158363076023536474 (0x36524D3276680195EA4F31A46B53CB5A)
Полное имя : F:OlLanDGroupDeadpool.2.Once.Upon.a.Deadpool.2018.BDRip(AVC).OlLanDGroup.mkv
Формат : Matroska
Версия формата : Version 4 / Version 2
Размер файла : 2,18 Гбайт
Продолжительность : 1 ч. 57 м.
Общий поток : 2646 Кбит/сек
Название фильма : Once Upon A Deadpool 2018 #TorpedoUK#
Дата кодирования : UTC 2019-02-18 15:41:57
Программа кодирования : mkvmerge v29.0.0 ('Like It Or Not') 64-bit
Библиотека кодирования : libebml v1.3.6 + libmatroska v1.4.9

Видео
Идентификатор : 1
Формат : AVC
Формат/Информация : Advanced Video Codec
Профиль формата : High@L4.1
Параметр CABAC формата : Да
Параметр ReFrames формата : 10 кадров
Идентификатор кодека : V_MPEG4/ISO/AVC
Продолжительность : 1 ч. 57 м.
Битрейт : 1812 Кбит/сек
Ширина : 1024 пикселя
Высота : 428 пикселей
Соотношение сторон : 2,40:1
Режим частоты кадров : Постоянный
Частота кадров : 23,976 (24000/1001) кадра/сек
Цветовое пространство : YUV
Субдискретизация насыщенности : 4:2:0
Битовая глубина : 8 бит
Тип развёртки : Прогрессивная
Бит/(Пиксели*Кадры) : 0.172
Размер потока : 1,49 Гбайт (68%)
Библиотека кодирования : x264 core 146 r2538 121396c
Настройки программы : cabac=1 / ref=10 / deblock=1:-3:-3 / analyse=0x3:0x113 / me=umh / subme=11 / psy=1 / psy_rd=0.99:0.04 / mixed_ref=1 / me_range=48 / chroma_me=1 / trellis=2 / 8x8dct=1 / cqm=0 / deadzone=21,11 / fast_pskip=1 / chroma_qp_offset=-3 / threads=6 / lookahead_threads=1 / sliced_threads=0 / nr=0 / decimate=1 / interlaced=0 / bluray_compat=0 / constrained_intra=0 / bframes=11 / b_pyramid=2 / b_adapt=2 / b_bias=0 / direct=3 / weightb=1 / open_gop=0 / weightp=2 / keyint=240 / keyint_min=23 / scenecut=40 / intra_refresh=0 / rc_lookahead=40 / rc=2pass / mbtree=0 / bitrate=1812 / ratetol=1.0 / qcomp=0.60 / qpmin=0 / qpmax=69 / qpstep=4 / cplxblur=20.0 / qblur=0.5 / vbv_maxrate=50000 / vbv_bufsize=62500 / nal_hrd=none / filler=0 / ip_ratio=1.40 / pb_ratio=1.30 / aq=1:1.00
Язык : English
Default : Да
Forced : Нет

Аудио #1
Идентификатор : 2
Формат : AC-3
Формат/Информация : Audio Coding 3
Расширение режима : CM (complete main)
Параметр Endianness формата : Big
Идентификатор кодека : A_AC3
Продолжительность : 1 ч. 57 м.
Вид битрейта : Постоянный
Битрейт : 384 Кбит/сек
Каналы : 6 каналов
Расположение каналов : Front: L C R, Side: L R, LFE
Частота : 48,0 КГц
Частота кадров : 31,250 кадров/сек (1536 spf)
Битовая глубина : 16 бит
Метод сжатия : С потерями
Размер потока : 323 Мбайт (15%)
Заголовок : DUB [iTunes]
Язык : Russian
Default : Да
Forced : Нет

Аудио #2
Идентификатор : 3
Формат : AC-3
Формат/Информация : Audio Coding 3
Расширение режима : CM (complete main)
Параметр Endianness формата : Big
Идентификатор кодека : A_AC3
Продолжительность : 1 ч. 57 м.
Вид битрейта : Постоянный
Битрейт : 448 Кбит/сек
Каналы : 6 каналов
Расположение каналов : Front: L C R, Side: L R, LFE
Частота : 48,0 КГц
Частота кадров : 31,250 кадров/сек (1536 spf)
Битовая глубина : 16 бит
Метод сжатия : С потерями
Размер потока : 377 Мбайт (17%)
Заголовок : [Original]
Язык : English
Default : Нет
Forced : Нет

Текст #1
Идентификатор : 4
Формат : UTF-8
Идентификатор кодека : S_TEXT/UTF8
Идентификатор кодека/Информация : UTF-8 Plain Text
Продолжительность : 1 ч. 56 м.
Битрейт : 0 бит/сек
Count of elements : 15
Размер потока : 668 байт (0%)
Заголовок : Forced
Язык : Russian
Default : Да
Forced : Нет

Текст #2
Идентификатор : 5
Формат : UTF-8
Идентификатор кодека : S_TEXT/UTF8
Идентификатор кодека/Информация : UTF-8 Plain Text
Продолжительность : 1 ч. 56 м.
Битрейт : 104 бит/сек
Count of elements : 1528
Размер потока : 89,4 Кбайт (0%)
Заголовок : Full
Язык : Russian
Default : Нет
Forced : Нет

Текст #3
Идентификатор : 6
Формат : UTF-8
Идентификатор кодека : S_TEXT/UTF8
Идентификатор кодека/Информация : UTF-8 Plain Text
Продолжительность : 1 ч. 56 м.
Битрейт : 78 бит/сек
Count of elements : 2310
Размер потока : 67,4 Кбайт (0%)
Заголовок : SDH
Язык : English
Default : Нет
Forced : Нет

Меню
00:00:00.000 : :Capítulo 01
00:04:07.205 : :Capítulo 02
00:06:13.456 : :Capítulo 03
00:11:31.524 : :Capítulo 04
00:15:12.662 : :Capítulo 05
00:18:35.323 : :Capítulo 06
00:20:51.834 : :Capítulo 07
00:24:33.555 : :Capítulo 08
00:25:54.928 : :Capítulo 09
00:28:19.072 : :Capítulo 10
00:32:40.876 : :Capítulo 11
00:36:23.598 : :Capítulo 12
00:39:48.219 : :Capítulo 13
00:42:27.086 : :Capítulo 14
00:45:29.518 : :Capítulo 15
00:49:04.942 : :Capítulo 16
00:52:19.762 : :Capítulo 17
00:54:50.662 : :Capítulo 18
00:56:33.557 : :Capítulo 19
00:58:21.123 : :Capítulo 20
01:03:27.053 : :Capítulo 21
01:07:02.810 : :Capítulo 22
01:12:23.756 : :Capítulo 23
01:17:15.756 : :Capítulo 24
01:20:19.314 : :Capítulo 25
01:23:45.729 : :Capítulo 26
01:25:43.430 : :Capítulo 27
01:28:30.889 : :Capítulo 28
01:29:58.393 : :Capítulo 29
01:31:31.736 : :Capítulo 30
01:33:04.204 : :Capítulo 31
01:36:22.443 : :Capítulo 32
01:39:00.893 : :Capítulo 33
01:42:45.368 : :Capítulo 34
01:46:28.799 : :Capítulo 35
01:56:51.004 : :Capítulo 36

pb.wtf



Скачать Жил-был Дэдпул через торрент https://i110.fastpic.ru/big/2019/0218/e0/6fcfd9efc2b99182789df6f7e37f7de0.jpg Скачать фильм Жил-был Дэдпул через торрент бесплантно в хорошем качестве Описание: Смягчённая фильма «Дэдпул 2» о наемнике-мутанте и его бесшабашной команде, которая встаёт на защиту одного проблемного ... 8.5 10 6
Торрент: Зарегистрирован [2019-02-18 16:19] · скачан: 257 раз
Статус: √ проверено
Размер: 2.18 GB
Как cкачать? Как скачать Жил-был Дэдпул через торрент | qTorrent

% Раздел Тема Автор DL S | L
Фильмы [HD 720p, 1080p] (Хороший звук DUB, MVO) [ 11.53 GB ] Жил-был Дэдпул / Once Upon A Deadpool [2018 BDRip 1080p] bober100 Скачать
3 | 0
Фильмы 2018 [DVDrip, WEB-DLRip, HDrip] (DUB, MVO) [ 2.13 GB ] Жил-был Дэдпул / Once Upon A Deadpool [2018 BDRip] bober100 Скачать
57 | 6
Фильмы 2018 [DVDrip, WEB-DLRip, HDrip] (DUB, MVO) [ 2.13 GB ] Жил-был Дэдпул / Once Upon A Deadpool [2018 BDRip] - Twi7ter Скачать
7 | 0
Фильмы 2018 [DVDrip, WEB-DLRip, HDrip] (DUB, MVO) [ 1.46 GB ] Жил-был Дэдпул / Once Upon A Deadpool [2018 BDRip] - Twi7ter Скачать
5 | 0
Фильмы [HD 720p, 1080p] (Хороший звук DUB, MVO) [ 5.78 GB ] Жил-был Дэдпул / Once Upon A Deadpool [2018 BDRip 720p] bober100 Скачать
3 | 0
Фильмы 2018 [DVDrip, WEB-DLRip, HDrip] (DUB, MVO) [ 1.41 GB ] Жил-был Дэдпул / Once Upon A Deadpool [2018 BDRip] bober100 Скачать
4 | 0

28-11-2019 20:33  

Отключить всю рекламу на сайте


    Дорогой пользователь! Огромная просьба, поблагодарите релизера, оцените раздачу и оставьте свои комментарий, если Вы скачали Жил-был Дэдпул через торрент бесплатно! Внесите свою лепту в развитие PiratBit!
    Комментировать посты могут только пользователи прошедшие не сложную регистрацию
    Показать сообщения:    

    Жил-был Дэдпул через торрент
    Скачать бесплатно Жил-был Дэдпул
    Жил-был Дэдпул скачать торрент
    Жил-был Дэдпул смотреть онлайн
    Cкачать фильм Жил-был Дэдпул бесплатно
    Жил-был Дэдпул скачать торрент в хорошем качестве
    Жил-был Дэдпул смотреть онлайн бесплатно в хорошем качестве


    Вы не можете начинать темы
    Вы не можете отвечать на сообщения
    Вы не можете редактировать свои сообщения
    Вы не можете удалять свои сообщения
    Вы не можете голосовать в опросах
    Вы не можете прикреплять файлы к сообщениям
    Вы можете скачивать файлы