Ссылка на приватное зеркало всего за 1$. Внимание количество ограничено!!!

OK

1+1

iTunes

мы

OK

1

WEB-DLRip

Джокер

Пифагор

Ведьмак / The Witcher сериал

iTunes

ПШазам

ОК

Оно 2

iTunes

30
pack

Вам бонус

ВАЖНО

!!Акция!!

Alien_RageХит недели

RePack

Resident Evil 21

ИГРА 18+

pack

RePack

jed

RePack

fifa19

RePack

Assassins Creed: Odyssey

RePack

NEED FOR SPEED™ PAYBACK

4 сезон

9 сезон

Бесстыжие 9 сезон

Все сериалы

все сериалы на PB.wtf

RePack

FAR CRY 5
  

Горнило вампира / Crucible of the Vampire (Иэн Росс-Макнами) [2019, Ужасы, фэнтези, триллер, драма, BDRip 720p] MVO ["Синема УС"] pb.wtf

Горнило вампира через торрент pb.wtf

Размер: 4.86 GB | Добавлен: 11 мес. назад | Торрент скачан:52 раза
Скачать  

18-02-2019 17:34 Горнило вампира Скачать торрент  

Горнило вампира / Crucible of the VampireГод выпуска: 2019
Страна: Великобритания
Жанр: Ужасы, фэнтези, триллер, драма
Продолжительность: 01:37:38
Перевод: Любительский (многоголосый) | "Синема УС"
Субтитры: отсутствуют

Режиссер: Иэн Росс-Макнами

rating

В ролях:

Нил Мориссей, Брайан Кроучер, Аарон Джеффкот, Чарльз О'Нил, Лиза Мартин, Ларри Рю, Кэти Голдфинч, Анджела Картер, Флоренс Кеди, Майкл Молчер

Описание:

Молодой куратор музея Изабель отправляется на инспекцию давно утерянного фрагмента таинственного каменного котла, найденного захороненным в одном старинном английском поместье. Однако, новоиспеченные владельцы реликвии оказываются не так просты, и имеют свои планы как на артефакт, так и на свою гостью.

Качество: BDRip 720p
Формат: MKV

Видео: h.264,6 679 Кбит/с, 1280x544
Аудио#1: Русский (AC3, 2 ch, 448 Кбит/с)
скриншот  скриншот  скриншот  

Общее
Уникальный идентификатор : 212006077885029360632003109780157563671 (0x9F7EE2A8342F7B0088F66A84F27F0317)
Полное имя : D:\Crucible.of.the.vampire.2019.P.BDRip.72Op.mkv
Формат : Matroska
Версия формата : Version 2
Размер файла : 4,86 Гбайт
Продолжительность : 1 ч. 37 м.
Режим общего битрейта : Переменный
Общий поток : 7129 Кбит/сек
Дата кодирования : UTC 2019-02-17 05:10:34
Программа кодирования : mkvmerge v8.3.0 ('Over the Horizon') 64bit
Библиотека кодирования : libebml v1.3.1 + libmatroska v1.4.2

Видео
Идентификатор : 1
Формат : AVC
Формат/Информация : Advanced Video Codec
Профиль формата : High@L4.1
Параметр CABAC формата : Да
Параметр RefFrames формата : 4 кадра
Идентификатор кодека : V_MPEG4/ISO/AVC
Продолжительность : 1 ч. 37 м.
Вид битрейта : Переменный
Битрейт : 6679 Кбит/сек
Максимальный битрейт : 7500 Кбит/сек
Ширина : 1280 пикселей
Высота : 544 пикселя
Соотношение сторон : 2,35:1
Режим частоты кадров : Постоянный
Частота кадров : 23,976 (24000/1001) кадра/сек
Стандарт вещания : Component
Цветовое пространство : YUV
Субдискретизация насыщенности : 4:2:0
Битовая глубина : 8 бит
Тип развёртки : Прогрессивная
Бит/(Пиксели*Кадры) : 0.392
Размер потока : 4,46 Гбайт (92%)
Default : Да
Forced : Нет
Цветовой диапазон : Limited
Основные цвета : BT.709
Характеристики трансфера : BT.709
Коэффициенты матрицы : BT.709

Аудио
Идентификатор : 2
Формат : AC-3
Формат/Информация : Audio Coding 3
Расширение режима : CM (complete main)
Параметр Endianness формата : Big
Идентификатор кодека : A_AC3
Продолжительность : 1 ч. 37 м.
Вид битрейта : Постоянный
Битрейт : 448 Кбит/сек
Каналы : 2 канала
Расположение каналов : Front: L R
Частота : 48,0 КГц
Частота кадров : 31,250 кадров/сек (1536 spf)
Метод сжатия : С потерями
Размер потока : 313 Мбайт (6%)
Default : Да
Forced : Нет

pb.wtf



Скачать Горнило вампира через торрент https://c.radikal.ru/c42/1902/d4/7cbe06e2e56e.jpg Скачать фильм Горнило вампира через торрент бесплантно в хорошем качестве Описание: Молодой куратор музея Изабель отправляется на инспекцию давно утерянного фрагмента таинственного каменного котла, найденного ... 10 10 3
Торрент: Зарегистрирован [2019-02-18 17:34] · скачан: 52 раз
Статус: # сомнительно
Размер: 4.86 GB
Как cкачать? Как скачать Горнило вампира через торрент | qTorrent

% Раздел Тема Автор DL S | L
T Фильмы (мультфильмы) cо спонсором показа (Новинки AVI/MKV) [ 1.37 GB ] Горнило вампира / Crucible of the Vampire [2019 HDRip] MVO ["Синема УС"] bober100 Скачать
1 | 0

28-11-2019 20:33  

Отключить всю рекламу на сайте

    Дорогой пользователь! Огромная просьба, поблагодарите релизера, оцените раздачу и оставьте свои комментарий, если Вы скачали Горнило вампира через торрент бесплатно! Внесите свою лепту в развитие PiratBit!
    Комментировать посты могут только пользователи прошедшие не сложную регистрацию
    Показать сообщения:    

    Горнило вампира через торрент
    Скачать бесплатно Горнило вампира
    Горнило вампира скачать торрент
    Горнило вампира смотреть онлайн
    Cкачать фильм Горнило вампира бесплатно
    Горнило вампира скачать торрент в хорошем качестве
    Горнило вампира смотреть онлайн бесплатно в хорошем качестве


    Вы не можете начинать темы
    Вы не можете отвечать на сообщения
    Вы не можете редактировать свои сообщения
    Вы не можете удалять свои сообщения
    Вы не можете голосовать в опросах
    Вы не можете прикреплять файлы к сообщениям
    Вы можете скачивать файлы