Ссылка на приватное зеркало всего за 1$. Внимание количество ограничено!!!

iTunes

1+1

iTunes

мы

WEB-DL

1

iTunes

Чернобыль

iTunes

Ральф против интернета

Лицензия

ПШазам

Лицензия

Оно 2

Лицензия

30
pack

Вам бонус

ВАЖНО

!!Акция!!

Alien_RageХит недели

RePack

Resident Evil 21

ИГРА 18+

pack

RePack

jed

!!Акция!!

Alien_Rage

RePack

fifa19

RePack

Assassins Creed: Odyssey

RePack

NEED FOR SPEED™ PAYBACK

3 сезон

9 сезон

Бесстыжие 9 сезон

Все сериалы

все сериалы на PB.wtf

RePack

FAR CRY 5
Ребята, катастрофически не хватает 1900р. для оплаты серверов за Октябрь (всвязи с блокировками трафик упал в 3 раза), 1-2р., выручайте.
  

Оверлорд / Overlord (Джулиус Эйвери) [2018, ужасы, фантастика, боевик, BDRip-AVC] MVO [HDrezka Studio] +DUB [Лицензия] pb.wtf

Оверлорд через торрент pb.wtf

Раздают: 1 [ 0 KB/s ]
Размер: 1.91 GB | Добавлен: 9 мес. назад | Торрент скачан:377 раз
Скачать  

18-02-2019 18:26 Оверлорд Скачать торрент  

Оверлорд / Overlord
Год выпуска: 2018
Страна: США
Жанр: ужасы, фантастика, боевик
Продолжительность: 01:49:47
Перевод:

Дублированный | Лицензия
Профессиональный (многоголосый, закадровый) | HDrezka Studio

Субтитры: Русские (форс., полные)

Режиссер: Джулиус Эйвери

rating

В ролях:

Джован Адепо (Boyce), Уайатт Рассел (Ford), Матильда Олливье (Chloe), Йохан Филип Асбек (Wafner), Джон Магаро (Tibbet), Йен де Кестекер (Chase), Джейкоб Андерсон (Dawson), Доминик Эпплуайт (Rosenfeld), Джанни Тофер (Paul), Джозеф Куинн (Grunauer), Боким Вудбайн (Rensin), Эрих Редман (Dr. Schmidt)
Описание:

Накануне высадки союзников в Нормандии два американских десантника проникают в оккупированный немцами посёлок, чтобы разрушить их радиомачту. Лазутчикам предстоит столкнуться не только с фашистскими военными, но и с паранормальными последствиями нацистских экспериментов.

Качество: BDRip-AVC
Формат: MKV

Видео: 1024x426 (2.40:1), 23,976 fps, x264 ~1 847 kbps avg, 0.177 bit/pixel
Аудио#1: 48 kHz, AC3 Dolby Digital, 3/2 (L,C,R,l,r) + LFE ch, ~448.00 kbps avg | RUS (Лицензия)
Аудио#2: 48 kHz, AC3 Dolby Digital, 2 (L,R) ch, ~192.00 kbps avg | RUS (HDRezka Studio)
скриншот  скриншот  скриншот  скриншот  скриншот  

Общее
Уникальный идентификатор : 54287764261279750406173218274752817169 (0x28D7716DB8A3BF758F46F97817976811)
Полное имя : F:OlLanDGroupOverlord.2018.BDRip(AVC).OllanDGroup.mkv
Формат : Matroska
Версия формата : Version 4 / Version 2
Размер файла : 1,91 Гбайт
Продолжительность : 1 ч. 50 м.
Общий поток : 2477 Кбит/сек
Название фильма : Overlord.2018 #TorpedoUK#
Дата кодирования : UTC 2019-02-18 18:14:14
Программа кодирования : mkvmerge v29.0.0 ('Like It Or Not') 64-bit
Библиотека кодирования : libebml v1.3.6 + libmatroska v1.4.9

Видео
Идентификатор : 1
Формат : AVC
Формат/Информация : Advanced Video Codec
Профиль формата : High@L4.1
Параметр CABAC формата : Да
Параметр ReFrames формата : 10 кадров
Идентификатор кодека : V_MPEG4/ISO/AVC
Продолжительность : 1 ч. 49 м.
Битрейт : 1847 Кбит/сек
Ширина : 1024 пикселя
Высота : 426 пикселей
Соотношение сторон : 2,40:1
Режим частоты кадров : Постоянный
Частота кадров : 23,976 (24000/1001) кадра/сек
Цветовое пространство : YUV
Субдискретизация насыщенности : 4:2:0
Битовая глубина : 8 бит
Тип развёртки : Прогрессивная
Бит/(Пиксели*Кадры) : 0.177
Размер потока : 1,42 Гбайт (74%)
Библиотека кодирования : x264 core 146 r2538 121396c
Настройки программы : cabac=1 / ref=10 / deblock=1:-2:-3 / analyse=0x3:0x113 / me=umh / subme=11 / psy=1 / psy_rd=0.97:0.05 / mixed_ref=1 / me_range=48 / chroma_me=1 / trellis=2 / 8x8dct=1 / cqm=0 / deadzone=21,11 / fast_pskip=1 / chroma_qp_offset=-3 / threads=6 / lookahead_threads=1 / sliced_threads=0 / nr=0 / decimate=1 / interlaced=0 / bluray_compat=0 / constrained_intra=0 / bframes=11 / b_pyramid=2 / b_adapt=2 / b_bias=0 / direct=3 / weightb=1 / open_gop=0 / weightp=2 / keyint=240 / keyint_min=23 / scenecut=40 / intra_refresh=0 / rc_lookahead=40 / rc=2pass / mbtree=0 / bitrate=1847 / ratetol=1.0 / qcomp=0.60 / qpmin=0 / qpmax=69 / qpstep=4 / cplxblur=20.0 / qblur=0.5 / vbv_maxrate=50000 / vbv_bufsize=62500 / nal_hrd=none / filler=0 / ip_ratio=1.40 / pb_ratio=1.30 / aq=1:1.00
Язык : English
Default : Да
Forced : Нет

Аудио #1
Идентификатор : 2
Формат : AC-3
Формат/Информация : Audio Coding 3
Расширение режима : CM (complete main)
Параметр Endianness формата : Big
Идентификатор кодека : A_AC3
Продолжительность : 1 ч. 49 м.
Вид битрейта : Постоянный
Битрейт : 448 Кбит/сек
Каналы : 6 каналов
Расположение каналов : Front: L C R, Side: L R, LFE
Частота : 48,0 КГц
Частота кадров : 31,250 кадров/сек (1536 spf)
Битовая глубина : 16 бит
Метод сжатия : С потерями
Размер потока : 352 Мбайт (18%)
Заголовок : DUB [License]
Язык : Russian
Default : Да
Forced : Нет

Аудио #2
Идентификатор : 3
Формат : AC-3
Формат/Информация : Audio Coding 3
Расширение режима : CM (complete main)
Параметр Endianness формата : Big
Идентификатор кодека : A_AC3
Продолжительность : 1 ч. 50 м.
Вид битрейта : Постоянный
Битрейт : 192 Кбит/сек
Каналы : 2 канала
Расположение каналов : Front: L R
Частота : 48,0 КГц
Частота кадров : 31,250 кадров/сек (1536 spf)
Битовая глубина : 16 бит
Метод сжатия : С потерями
Размер потока : 152 Мбайт (8%)
Заголовок : MVO [HDRezka Studio]
Язык : Russian
Default : Нет
Forced : Нет

Текст #1
Идентификатор : 4
Формат : UTF-8
Идентификатор кодека : S_TEXT/UTF8
Идентификатор кодека/Информация : UTF-8 Plain Text
Продолжительность : 1 ч. 22 м.
Битрейт : 5 бит/сек
Count of elements : 94
Размер потока : 3,22 Кбайт (0%)
Заголовок : Forced
Язык : Russian
Default : Да
Forced : Нет

Текст #2
Идентификатор : 5
Формат : UTF-8
Идентификатор кодека : S_TEXT/UTF8
Идентификатор кодека/Информация : UTF-8 Plain Text
Продолжительность : 1 ч. 42 м.
Битрейт : 59 бит/сек
Count of elements : 1017
Размер потока : 45,0 Кбайт (0%)
Заголовок : Full
Язык : Russian
Default : Нет
Forced : Нет

Меню
00:00:00.000 : en:Chapter 01
00:06:31.099 : en:Chapter 02
00:13:47.493 : en:Chapter 03
00:20:31.313 : en:Chapter 04
00:26:27.795 : en:Chapter 05
00:34:08.964 : en:Chapter 06
00:41:10.593 : en:Chapter 07
00:48:41.377 : en:Chapter 08
00:55:50.889 : en:Chapter 09
01:03:21.464 : en:Chapter 10
01:10:28.599 : en:Chapter 11
01:17:21.887 : en:Chapter 12
01:25:47.601 : en:Chapter 13
01:32:19.159 : en:Chapter 14
01:38:48.464 : en:Chapter 15
01:42:39.195 : en:Chapter 16

pb.wtf



Скачать Оверлорд через торрент http://img10.lostpic.net/2019/02/12/c4e18cc8463729a1eedb9195995ede5a.jpg Скачать фильм Оверлорд через торрент бесплантно в хорошем качестве Описание: Накануне высадки союзников в Нормандии два американских десантника проникают в оккупированный немцами посёлок, чтобы разрушить их ... 10 10 7
Info! Золотая раздача, скачанное не засчитывается.
Торрент: Зарегистрирован [2019-02-18 18:26] · скачан: 377 раз
Статус: √ проверено
Размер: 1.91 GB
Как cкачать? Как скачать Оверлорд через торрент | qTorrent

% Раздел Тема Автор DL S | L
Фильмы [HD 720p, 1080p] (Хороший звук DUB, MVO) [ 4.28 GB ] Оверлорд / Overlord [2018 военный BDRip 720p Dub MVO AVO] от ExKinoRay morfyi Скачать
2 | 0
Ultra HD (UHD: 2K, 4K, 8K) — видео сверхвысокой чёткости [ 27.6 GB ] Оверлорд / Overlord [2018 UHD BDRip 2160p] DUB [] sheker187 Скачать
1 | 0
Фильмы 2018 [DVDrip, WEB-DLRip, HDrip] (DUB, MVO) [ 1.46 GB ] Оверлорд / Overlord [2018 BDRip] - [] Twi7ter Скачать
8 | 0
Фильмы 2018 [DVDrip, WEB-DLRip, HDrip] (DUB, MVO) [ 2.18 GB ] Оверлорд / Overlord [2018 BDRip] - [] Twi7ter Скачать
6 | 0
Фильмы [HD 720p, 1080p] (Хороший звук DUB, MVO) [ 2.73 GB ] Оверлорд / Overlord [2018 военный BDRip 1080p HEVC ()] Мичман37 Скачать
5 | 0
Фильмы [HD 720p, 1080p] (Хороший звук DUB, MVO) [ 5.28 GB ] Оверлорд / Overlord [2018 BDRip 720p] DUB [] sheker187 Скачать
25 | 0
Фильмы (Blu-ray, BD-Remux, HDDVD) [ 25.31 GB ] Оверлорд / Overlord [2018 BDRemux 1080p] DUB + MVO [HDrezka Studio] sheker187 Скачать
1 | 0

28-11-2019 20:33  

Отключить всю рекламу на сайте

19-02-2019 06:56 Оверлорд Скачать торрент  

нас оживили я не могу мы можем о да спасибо сшаpb.wtf



    Дорогой пользователь! Огромная просьба, поблагодарите релизера, оцените раздачу и оставьте свои комментарий, если Вы скачали Оверлорд через торрент бесплатно! Внесите свою лепту в развитие PiratBit!
    Комментировать посты могут только пользователи прошедшие не сложную регистрацию
    Показать сообщения:    

    Оверлорд через торрент
    Скачать бесплатно Оверлорд
    Оверлорд скачать торрент
    Оверлорд смотреть онлайн
    Cкачать фильм Оверлорд бесплатно
    Оверлорд скачать торрент в хорошем качестве
    Оверлорд смотреть онлайн бесплатно в хорошем качестве


    Вы не можете начинать темы
    Вы не можете отвечать на сообщения
    Вы не можете редактировать свои сообщения
    Вы не можете удалять свои сообщения
    Вы не можете голосовать в опросах
    Вы не можете прикреплять файлы к сообщениям
    Вы можете скачивать файлы