Ссылка на приватное зеркало нашего сайта всего за 1$. Внимание количество ограничено!!!

2 сезон

iTunes

1 сезон

1

2 сезон

2 сезон

iTunes

1 сезон

RePack

30

Новинка

ВАЖНО

ИГРА 18+

pack

RePack

MK11
pack

Забери бонус

RePack

jed

!!Акция!!

Alien_Rage

RePack

fifa19

RePack

Assassins Creed: Odyssey

RePack

NEED FOR SPEED™ PAYBACK

4 сезон

9 сезон

Бесстыжие 9 сезон

Все сериалы

все сериалы на PB.wtf

RePack

FAR CRY 5
  

Чёрный понедельник / Black Monday / Сезон: 1 / Серии: 1-10 из 10 (Эван Голдберг, Сет Роген, Чарльз Стоун III) [2019, Комедия, WEB-DL 1080p] 3xMVO [Jaskier, NewStudio, AlexFilm] +DVO [Кубик в Кубе] pb.wtf

Чёрный понедельник через торрент pb.wtf

Размер: 26.12 GB | Добавлен: 1 год 6 мес. назад | Торрент скачан:29 раз
Скачать  

18-02-2019 19:21 Чёрный понедельник Скачать торрент  

Чёрный понедельник | Black Monday Год выпуска: 2019
Страна: США
Жанр: Комедия
Продолжительность: ~ 00:35:00
Перевод:

Перевод №1: Профессиональный (многоголосый закадровый) | Jaskier
Перевод №2: Профессиональный (многоголосый закадровый) | NewStudio
Перевод №3: Профессиональный (многоголосый закадровый) | AlexFilm
Перевод №4: Профессиональный (двухголосый закадровый) | Кубик в Кубе

Субтитры: Английские (Full, SDH)

Режиссёр: Эван Голдберг, Сет Роген, Чарльз Стоун III

В ролях:

Дон Чидл, Эндрю Рэннеллс, Пол Шир, Реджина Холл, Юджин Кордеро, Кадим Хардисон, Курт Браунолер, Эдвин Гэйджиано и др.

Описание:

После «Чёрного понедельника» — 19 октября 1987 года, когда произошёл крупнейший обвал фондового рынка в истории Уолл-стрит, группа финансистов-любителей находит способ заработать на этом, в одночасье превратив свою унылую жизнь в сплошной праздник.




Качество: WEB-DL 1080p
Формат: MKV

Видео: AVC, 1920x1080 (16:9), 23.976 fps, ~11 Mbps
Аудио №1: AC3, 48,0 kHz, 6 ch, 384 kbps | Jaskier
Аудио №2: AC3, 48,0 kHz, 6 ch, 384 kbps | NewStudio
Аудио №3: AC3, 48,0 kHz, 6 ch, 384 kbps | AlexFilm
Аудио №4: AC3, 48,0 kHz, 6 ch, 384 kbps | Кубик в Кубе
Аудио №5: AC3, 48,0 kHz, 6 ch, 640 kbps | Original
01. 365
02. 364
03. 339
Complete name : D:\Shows\Black_Monday_(s01)_1080p\Black.Monday.2019.S01E01.365.1080p.AMZN.WEB-DL.DD5.1.x264-monkee.mkv
Format : Matroska
Format version : Version 2
File size : 3.39 GiB
Duration : 35 min 43 s
Overall bit rate : 13.6 Mb/s
Encoded date : UTC 2019-02-25 17:05:00
Writing application : mkvmerge v4.9.1 ('Ich will') сборка от Jul 11 2011 23:53:15
Writing library : libebml v1.2.1 + libmatroska v1.1.1

Video
ID : 1
Format : AVC
Format/Info : Advanced Video Codec
Format profile : High@L4
Format settings : CABAC / 4 Ref Frames
Format settings, CABAC : Yes
Format settings, ReFrames : 4 frames
Codec ID : V_MPEG4/ISO/AVC
Duration : 35 min 43 s
Bit rate : 11.1 Mb/s
Width : 1 920 pixels
Height : 1 080 pixels
Display aspect ratio : 16:9
Frame rate mode : Constant
Frame rate : 23.976 (24000/1001) FPS
Color space : YUV
Chroma subsampling : 4:2:0
Bit depth : 8 bits
Scan type : Progressive
Bits/(Pixel*Frame) : 0.224
Stream size : 2.78 GiB (82%)
Title : Release by EniaHD
Default : Yes
Forced : No
Color range : Limited
Color primaries : BT.709
Transfer characteristics : BT.709
Matrix coefficients : BT.709

Audio #1
ID : 2
Format : AC-3
Format/Info : Audio Coding 3
Commercial name : Dolby Digital
Codec ID : A_AC3
Duration : 35 min 43 s
Bit rate mode : Constant
Bit rate : 384 kb/s
Channel(s) : 6 channels
Channel layout : L R C LFE Ls Rs
Sampling rate : 48.0 kHz
Frame rate : 31.250 FPS (1536 SPF)
Bit depth : 16 bits
Compression mode : Lossy
Stream size : 98.1 MiB (3%)
Title : Jaskier
Language : Russian
Service kind : Complete Main
Default : Yes
Forced : No

Audio #2
ID : 3
Format : AC-3
Format/Info : Audio Coding 3
Commercial name : Dolby Digital
Codec ID : A_AC3
Duration : 35 min 43 s
Bit rate mode : Constant
Bit rate : 384 kb/s
Channel(s) : 6 channels
Channel layout : L R C LFE Ls Rs
Sampling rate : 48.0 kHz
Frame rate : 31.250 FPS (1536 SPF)
Bit depth : 16 bits
Compression mode : Lossy
Stream size : 98.1 MiB (3%)
Title : NewStudio
Language : Russian
Service kind : Complete Main
Default : No
Forced : No

Audio #3
ID : 4
Format : AC-3
Format/Info : Audio Coding 3
Commercial name : Dolby Digital
Codec ID : A_AC3
Duration : 35 min 43 s
Bit rate mode : Constant
Bit rate : 384 kb/s
Channel(s) : 6 channels
Channel layout : L R C LFE Ls Rs
Sampling rate : 48.0 kHz
Frame rate : 31.250 FPS (1536 SPF)
Bit depth : 16 bits
Compression mode : Lossy
Stream size : 98.1 MiB (3%)
Title : AlexFilm
Language : Russian
Service kind : Complete Main
Default : No
Forced : No

Audio #4
ID : 5
Format : AC-3
Format/Info : Audio Coding 3
Commercial name : Dolby Digital
Codec ID : A_AC3
Duration : 35 min 43 s
Bit rate mode : Constant
Bit rate : 384 kb/s
Channel(s) : 6 channels
Channel layout : L R C LFE Ls Rs
Sampling rate : 48.0 kHz
Frame rate : 31.250 FPS (1536 SPF)
Bit depth : 16 bits
Compression mode : Lossy
Stream size : 98.1 MiB (3%)
Title : Кубик в Кубе
Language : Russian
Service kind : Complete Main
Default : No
Forced : No

Audio #5
ID : 6
Format : AC-3
Format/Info : Audio Coding 3
Commercial name : Dolby Digital
Codec ID : A_AC3
Duration : 35 min 43 s
Bit rate mode : Constant
Bit rate : 640 kb/s
Channel(s) : 6 channels
Channel layout : L R C LFE Ls Rs
Sampling rate : 48.0 kHz
Frame rate : 31.250 FPS (1536 SPF)
Bit depth : 16 bits
Compression mode : Lossy
Stream size : 164 MiB (5%)
Language : English
Service kind : Complete Main
Default : No
Forced : No

Text #1
ID : 7
Format : UTF-8
Codec ID : S_TEXT/UTF8
Codec ID/Info : UTF-8 Plain Text
Title : Full
Language : English
Default : No
Forced : No

Text #2
ID : 8
Format : UTF-8
Codec ID : S_TEXT/UTF8
Codec ID/Info : UTF-8 Plain Text
Title : SDH
Language : English
Default : No
Forced : No
pb.wtf



Скачать Чёрный понедельник через торрент https://c.radikal.ru/c02/1902/f9/2abfca9bc4f6.png Скачать фильм Чёрный понедельник через торрент бесплантно в хорошем качестве Описание: После «Чёрного понедельника» — 19 октября 1987 года, когда произошёл крупнейший обвал фондового рынка в истории Уолл-стрит, ... 10 10 5
Торрент: Зарегистрирован [2019-05-14 17:12] · скачан: 29 раз
Статус: √ проверено
Размер: 26.12 GB
Как cкачать? Как скачать Чёрный понедельник через торрент | qTorrent

% Раздел Тема Автор DL S | L
Зарубежные сериалы [ 13.1 GB ] Чёрный понедельник / Black Monday / Сезон: 2 / Серии: 1-10 из 10 [2020 WEB-DL 720p] MVO [AlexFilm] bober100 Скачать
1 | 0
Зарубежные сериалы [ 2.68 GB ] Чёрный понедельник / Black Monday / Сезон: 2 / Серии: 1-2 из 10 [2020 WEB-DL 720p] [MVO] killermax2013 Скачать
1 | 0
Зарубежные сериалы [ 21.37 GB ] Чёрный понедельник / Black Monday / Сезон: 2 / Серии: 1-10 из 10 [2020 WEB-DL 1080p] MVO [AlexFilm] bober100 Скачать
1 | 0
Зарубежные сериалы [ 22.51 GB ] Чёрный понедельник / Black Monday / Сезон: 2 / Серии: 1-10 из 10 [2020 WEB-DL 1080p] [MVO] killermax2013 Скачать
2 | 0
Зарубежные сериалы [ 34.46 GB ] Чёрный понедельник / Black Monday / Сезон: 1 / Серии: 1-10 из 10 [2019 WEBRip 1080p] [MVO] killermax2013 Скачать
1 | 0
Зарубежные сериалы [ 3.5 GB ] Чёрный понедельник / Black Monday / Сезон: 1 / Серии: 1-10 из 10 [2019 WEB-DLRip] MVO [AlexFilm] bober100 Скачать
1 | 0
Зарубежные сериалы [ 27.61 GB ] Чёрный понедельник / Black Monday / Сезон: 1 / Серии: 1-10 из 10 [2019 WEB-DL 1080p] MVO [TVShows] bober100 Скачать
1 | 0

28-11-2019 20:33  

Отключить всю рекламу на сайте

    Дорогой пользователь! Огромная просьба, поблагодарите релизера, оцените раздачу и оставьте свои комментарий, если Вы скачали Чёрный понедельник через торрент бесплатно! Внесите свою лепту в развитие PiratBit!
    Комментировать посты могут только пользователи прошедшие не сложную регистрацию
    Показать сообщения:    

    Чёрный понедельник через торрент
    Скачать бесплатно Чёрный понедельник
    Чёрный понедельник скачать торрент
    Чёрный понедельник смотреть онлайн
    Cкачать фильм Чёрный понедельник бесплатно
    Чёрный понедельник скачать торрент в хорошем качестве
    Чёрный понедельник смотреть онлайн бесплатно в хорошем качестве


    Вы не можете начинать темы
    Вы не можете отвечать на сообщения
    Вы не можете редактировать свои сообщения
    Вы не можете удалять свои сообщения
    Вы не можете голосовать в опросах
    Вы не можете прикреплять файлы к сообщениям
    Вы можете скачивать файлы