Ссылка на приватное зеркало нашего сайта всего за 1$. Внимание количество ограничено!!!

2 сезон

iTunes

1 сезон

1

2 сезон

2 сезон

iTunes

1 сезон

RePack

30

Ultimate

ВАЖНО

ИГРА 18+

pack

RePack

MK11
pack

Забери бонус

RePack

jed

!!Акция!!

Alien_Rage

RePack

fifa19

RePack

Assassins Creed: Odyssey

RePack

NEED FOR SPEED™ PAYBACK

4 сезон

9 сезон

Бесстыжие 9 сезон

Все сериалы

все сериалы на PB.wtf

RePack

FAR CRY 5
  

Чёрный понедельник / Black Monday / Сезон: 1 / Серии: 1-10 из 10 (Эван Голдберг, Сет Роген) [2019, Комедия, WEB-DL 1080p] MVO [TVShows] pb.wtf

Чёрный понедельник через торрент pb.wtf

Размер: 27.61 GB | Добавлен: 1 год 7 мес. назад | Торрент скачан:14 раз
Скачать  

18-02-2019 19:28 Чёрный понедельник Скачать торрент  

Чёрный понедельник / Black Monday

Год выпуска: 2019
Страна: США
Жанр: Комедия
Продолжительность: ~ 00:35:00
Перевод: Профессиональный (многоголосый закадровый) | TVShows
Субтитры: английские

Режиссёр: Эван Голдберг, Сет Роген

В ролях:

Дон Чидл, Эндрю Рэннеллс, Пол Шир, Реджина Холл, Юджин Кордеро, Кадим Хардисон, Курт Браунолер, Эдвин Гэйджиано

Описание:

События сериала разворачиваются вскоре после «Черного понедельника» — 19 октября 1987 года, когда произошел крупнейший обвал фондового рынка в истории Уолл-стрит. Группа финансистов-любителей находит способ заработать на финансовой катастрофе, в одночасье превратив свою унылую жизнь в сплошной праздник.




Качество: WEB-DL 1080p
Формат: MKV

Видео: MPEG-4 AVC, 1920x1080 (16:9), 23.976 fps, ~11400 Kbps
Аудио 1: 48 kHz, AC3, 6 ch, 384 kbps | TVShows
Аудио 2: 48 kHz, E-AC3, 6 ch, 640 kbps | Original


Реклама: отсутствует
General
Unique ID                   : 33509737606695618479643963683839078448 (0x1935BD9F12FDB5927313880228D6F030)
Complete name               : F:\Black.Monday.S01.1080p.TVShows\Black.Monday.S01E01.1080p.TVShows.mkv
Format                      : Matroska
Format version              : Version 4 / Version 2
File size                   : 3.10 GiB
Duration                    : 35 min 43 s
Overall bit rate            : 12.4 Mb/s
Encoded date                : UTC 2019-01-30 07:28:01
Writing application         : mkvmerge v30.1.0 ('Forever And More') 64-bit
Writing library             : libebml v1.3.6 + libmatroska v1.4.9

Video
ID                          : 1
Format                      : AVC
Format/Info                 : Advanced Video Codec
Format profile              : High@L4
Format settings             : CABAC / 4 Ref Frames
Format settings, CABAC      : Yes
Format settings, ReFrames   : 4 frames
Codec ID                    : V_MPEG4/ISO/AVC
Duration                    : 35 min 43 s
Bit rate                    : 11.4 Mb/s
Width                       : 1 920 pixels
Height                      : 1 080 pixels
Display aspect ratio        : 16:9
Frame rate mode             : Constant
Frame rate                  : 23.976 (24000/1001) FPS
Color space                 : YUV
Chroma subsampling          : 4:2:0
Bit depth                   : 8 bits
Scan type                   : Progressive
Bits/(Pixel*Frame)          : 0.229
Stream size                 : 2.85 GiB (92%)
Default                     : Yes
Forced                      : No
Color range                 : Limited
Color primaries             : BT.709
Transfer characteristics    : BT.709
Matrix coefficients         : BT.709

Audio #1
ID                          : 2
Format                      : AC-3
Format/Info                 : Audio Coding 3
Codec ID                    : A_AC3
Duration                    : 35 min 43 s
Bit rate mode               : Constant
Bit rate                    : 384 kb/s
Channel(s)                  : 6 channels
Channel positions           : Front: L C R, Side: L R, LFE
Sampling rate               : 48.0 kHz
Frame rate                  : 31.250 FPS (1536 SPF)
Bit depth                   : 16 bits
Compression mode            : Lossy
Stream size                 : 98.1 MiB (3%)
Title                       : TVShows
Language                    : Russian
Service kind                : Complete Main
Default                     : Yes
Forced                      : Yes

Audio #2
ID                          : 3
Format                      : E-AC-3
Format/Info                 : Enhanced Audio Coding 3
Codec ID                    : A_EAC3
Duration                    : 35 min 43 s
Bit rate mode               : Constant
Bit rate                    : 640 kb/s
Channel(s)                  : 6 channels
Channel positions           : Front: L C R, Side: L R, LFE
Sampling rate               : 48.0 kHz
Frame rate                  : 187.500 FPS (256 SPF)
Compression mode            : Lossy
Stream size                 : 164 MiB (5%)
Title                       : Original
Language                    : English
Service kind                : Complete Main
Default                     : No
Forced                      : No

Text
ID                          : 4
Format                      : UTF-8
Codec ID                    : S_TEXT/UTF8
Codec ID/Info               : UTF-8 Plain Text
Duration                    : 34 min 4 s
Bit rate                    : 108 b/s
Count of elements           : 853
Stream size                 : 27.2 KiB (0%)
Title                       : English
Language                    : English
Default                     : No
Forced                      : No
Когда раздача ведётся путём добавления новых серий, при каждом добавлении создётся новый торрент. Чтобы начать докачку новой серии, пользователям необходимо сделать следующее:
(1) остановить скачивание,
(2) удалить старый торрент у себя из клиента (старые серии удалять не надо),
(3) скачать новый торрент и запустить его у себя в клиенте вместо старого, при этом указать клиенту путь в старую папку, куда и должно происходить скачивание новых серий.
Ваш клиент при этом должен произвести хеширование (проверку) старой папки (если не производит сам - помогите ему сделать это), и будет докачивать только те серии, которых у вас ещё нет. Старые серии при этом не удаляются, а продолжают раздаваться!
Eсли вы уже удалили старые серии, то предотвратить повторную закачку старых серий можно, отжав галочку в соответсвующих местах при запуске нового торрента. По возможности, желательно не удалять старые серии как можно дольше, чтобы релизёр не столько продолжал раздавать старые серии, а смог сконцентрироваться на новых.
pb.wtf



Скачать Чёрный понедельник через торрент https://b.radikal.ru/b38/1902/da/f70b6ef1cccf.jpg Скачать фильм Чёрный понедельник через торрент бесплантно в хорошем качестве Описание:События сериала разворачиваются вскоре после «Черного понедельника» — 19 октября 1987 года, когда произошел крупнейший обвал ... 10 10 2
Торрент: Зарегистрирован [2019-04-09 06:06] · скачан: 14 раз
Статус: √ проверено
Размер: 27.61 GB
Как cкачать? Как скачать Чёрный понедельник через торрент | qTorrent

% Раздел Тема Автор DL S | L
Зарубежные сериалы [ 13.1 GB ] Чёрный понедельник / Black Monday / Сезон: 2 / Серии: 1-10 из 10 [2020 WEB-DL 720p] MVO [AlexFilm] bober100 Скачать
1 | 0
Зарубежные сериалы [ 2.68 GB ] Чёрный понедельник / Black Monday / Сезон: 2 / Серии: 1-2 из 10 [2020 WEB-DL 720p] [MVO] killermax2013 Скачать
1 | 0
Зарубежные сериалы [ 21.37 GB ] Чёрный понедельник / Black Monday / Сезон: 2 / Серии: 1-10 из 10 [2020 WEB-DL 1080p] MVO [AlexFilm] bober100 Скачать
1 | 0
Зарубежные сериалы [ 22.51 GB ] Чёрный понедельник / Black Monday / Сезон: 2 / Серии: 1-10 из 10 [2020 WEB-DL 1080p] [MVO] killermax2013 Скачать
2 | 0
Зарубежные сериалы [ 34.46 GB ] Чёрный понедельник / Black Monday / Сезон: 1 / Серии: 1-10 из 10 [2019 WEBRip 1080p] [MVO] killermax2013 Скачать
1 | 0
Зарубежные сериалы [ 3.5 GB ] Чёрный понедельник / Black Monday / Сезон: 1 / Серии: 1-10 из 10 [2019 WEB-DLRip] MVO [AlexFilm] bober100 Скачать
1 | 0
Зарубежные сериалы [ 26.12 GB ] Чёрный понедельник / Black Monday / Сезон: 1 / Серии: 1-10 из 10 [2019 WEB-DL 1080p] 3xMVO [Jaskier NewStudio AlexFilm] +DVO [Кубик в Кубе] bober100 Скачать
1 | 0

28-11-2019 20:33  

Отключить всю рекламу на сайте

    Дорогой пользователь! Огромная просьба, поблагодарите релизера, оцените раздачу и оставьте свои комментарий, если Вы скачали Чёрный понедельник через торрент бесплатно! Внесите свою лепту в развитие PiratBit!
    Комментировать посты могут только пользователи прошедшие не сложную регистрацию
    Показать сообщения:    

    Чёрный понедельник через торрент
    Скачать бесплатно Чёрный понедельник
    Чёрный понедельник скачать торрент
    Чёрный понедельник смотреть онлайн
    Cкачать фильм Чёрный понедельник бесплатно
    Чёрный понедельник скачать торрент в хорошем качестве
    Чёрный понедельник смотреть онлайн бесплатно в хорошем качестве


    Вы не можете начинать темы
    Вы не можете отвечать на сообщения
    Вы не можете редактировать свои сообщения
    Вы не можете удалять свои сообщения
    Вы не можете голосовать в опросах
    Вы не можете прикреплять файлы к сообщениям
    Вы можете скачивать файлы