Ссылка на приватное зеркало нашего сайта всего за 1$. Внимание количество ограничено!!!

2 сезон

iTunes

1 сезон

1

iTunes

iTunes

iTunes

1 сезон

RePack

30

ИГРА 18+

pack

ВАЖНО

!!Акция!!

Alien_RageХит недели

RePack

MK11
pack

Забери бонус

RePack

jed

!!Акция!!

Alien_Rage

RePack

fifa19

RePack

Assassins Creed: Odyssey

RePack

NEED FOR SPEED™ PAYBACK

4 сезон

9 сезон

Бесстыжие 9 сезон

Все сериалы

все сериалы на PB.wtf

RePack

FAR CRY 5
  

Склифосовский / Сезон: 7 / Серии: 1-16 из 16 (Юлия Краснова) [2019, Драма, мелодрама, медицина, HDTV 1080i] pb.wtf

Склифосовский через торрент pb.wtf

Размер: 44.57 GB | Добавлен: 1 год 7 мес. назад | Торрент скачан:24 раза
Скачать  

19-02-2019 03:32 Склифосовский Скачать торрент  

СклифосовскийГод выпуска: 2019
Страна: Россия
Жанр: Драма, мелодрама, медицина
Продолжительность: ~ 00:51:00
Субтитры: отсутствуют

Режиссер: Юлия Краснова

rating

В ролях:

Максим Аверин, Мария Куликова, Константин Юшкевич, Евгения Дмитриева, Александр Сирин, Иван Шабалтас, Владимир Жеребцов, Андрей Барило, Анна Якунина, Екатерина Травова, Елена Яковлева, Владимир Довжик, Олег Чернов, Мария Рыщенкова, Дмитрий Жульков, Елена Папанова, Ирина Основина, Валерий Ярёменко, Леонид Громов, Александр Сетейкин, Светлана Закирова, Сергей Климов, Инна Стерлигова, Елена Захарова (II), Татьяна Аугшкап, Константин Лукич, Сергей Терещук, Олег Билик, Валентин Валл, Мария Чувилина, Константин Новиков (II), Шухрат Иргашев, Анна Масальская, Иван Агапов, Михаил Руденко, Андрей Ильин, Юрий Назаров, Анна Телицына, Олег Дуленин, Александр Стефанцов, Ольга Цинк, Михаил Панюков, Егор Ковалёв

Описание:

В седьмом сезоне главное поле боя перемещается из операционной главного института скорой помощи, где Брагин был на коне, в отнюдь не тихую семейную гавань, где наш герой совсем неопытен и безоружен. Освоиться в роли молодых родителей Брагину и Марине оказалось не просто, особенно с появлением в семье Тамары – дочери погибшей Эммы. Девчонка растёт настоящей сорвиголовой и вносит в семью настоящую смуту. За Брагиным - сложные вопросы, и скальпелем их не решить... Костя и Саша начинают новый этап жизни – теперь уже врозь. Они оба успешны и притягивают взгляды, но готовы ли они начать новые отношения? Нина в ожидании второго ребёнка. Неклюдов вроде бы принял эту новость, но кто знает, не занесёт ли его снова в какую-то крайность? А вот Куликов не изменяет себе, изменяя своим женщинам. Но судьба уже готовит для него сюрприз. Сергею предстоит сделать непростой выбор, который может изменить всю его жизнь...

Качество: HDTV 1080i
Формат: TS

Видео: 1920х1080 (16:9), 25 fps, AVC MPEG-4 (x264), High@L4.0 ~ 7100 kbps avg, 0.118 bit/pixel
Аудио: 48 kHz, MP2, 2 ch, 192 kbps avg
скриншот  скриншот  скриншот  скриншот  

Общее
Идентификатор : 1 (0x1)
Полное имя : D:\Sklif-7.2019.HDTV.(1080i).Nikolspup\Sklif-7.(01.seriya).2019.HDTV.(1080i).Nikolspup.ts
Формат : MPEG-TS
Размер файла : 2,71 Гбайт
Продолжительность : 50 м. 41 с.
Режим общего битрейта : Переменный
Общий поток : 7664 Кбит/сек

Видео
Идентификатор : 2911 (0xB5F)
Идентификатор меню : 1343 (0x53F)
Формат : AVC
Формат/Информация : Advanced Video Codec
Профиль формата : High@L4
Параметр CABAC формата : Да
Параметр RefFrames формата : 4 кадра
Идентификатор кодека : 27
Продолжительность : 50 м. 41 с.
Битрейт : 7091 Кбит/сек
Ширина : 1920 пикселей
Высота : 1080 пикселей
Соотношение сторон : 16:9
Частота кадров : 25,000 кадров/сек
Цветовое пространство : YUV
Субдискретизация насыщенности : 4:2:0
Битовая глубина : 8 бит
Тип развёртки : MBAFF
Метод сохранения типа развёртки : Чередующиеся поля
Порядок развёртки : Верхнее поле первое
Бит/(Пиксели*Кадры) : 0.137
Размер потока : 2,51 Гбайт (93%)

Аудио
Идентификатор : 2912 (0xB60)
Идентификатор меню : 1343 (0x53F)
Формат : MPEG Audio
Версия формата : Version 1
Профиль формата : Layer 2
Идентификатор кодека : 3
Продолжительность : 50 м. 41 с.
Вид битрейта : Постоянный
Битрейт : 192 Кбит/сек
Каналы : 2 канала
Частота : 48,0 КГц
Метод сжатия : С потерями
Задержка видео : -160 мс.
Размер потока : 69,6 Мбайт (3%)
Язык : Russian

Когда раздача ведётся путём добавления новых серий, при каждом добавлении создётся новый торрент. Чтобы начать докачку новой серии, пользователям необходимо сделать следующее:
(1) остановить скачивание,
(2) удалить старый торрент у себя из клиента (старые серии удалять не надо),
(3) скачать новый торрент и запустить его у себя в клиенте вместо старого, при этом указать клиенту путь в старую папку, куда и должно происходить скачивание новых серий.
Ваш клиент при этом должен произвести хеширование (проверку) старой папки (если не производит сам - помогите ему сделать это), и будет докачивать только те серии, которых у вас ещё нет. Старые серии при этом не удаляются, а продолжают раздаваться!
Eсли вы уже удалили старые серии, то предотвратить повторную закачку старых серий можно, отжав галочку в соответсвующих местах при запуске нового торрента. По возможности, желательно не удалять старые серии как можно дольше, чтобы релизер не столько продолжал раздавать старые серии, а смог сконцентрироваться на новых.
pb.wtf



Скачать Склифосовский через торрент https://c.radikal.ru/c16/1902/70/7603e5d29dc3.jpg Скачать фильм Склифосовский через торрент бесплантно в хорошем качестве Описание: В седьмом сезоне главное поле боя перемещается из операционной главного института скорой помощи, где Брагин был на коне, в отнюдь ... 10 10 4
Info! Серебряная раздача, засчитывается только 50% скачанного.
Торрент: Зарегистрирован [2019-03-01 02:54] · скачан: 24 раз
Статус: √ проверено
Размер: 44.57 GB
Как cкачать? Как скачать Склифосовский через торрент | qTorrent

% Раздел Тема Автор DL S | L
Наши сериалы [ 10.04 GB ] Склифосовский / Сезон: 7 / Серии: 1-16 из 16 [2019 медицина WEB-DLRip] bober100 Скачать
2 | 0
Наши сериалы [ 10.5 GB ] Склифосовский / Сезон: 7 / Серии: 1-16 из 16 [2019 SATRip-AVC] aleksan55 Скачать
1 | 0
Наши сериалы [ 11.26 GB ] Склифосовский / Сезон: 7 / Серии: 1-16 из 16 [2019 медицина SATRip] bober100 Скачать
1 | 0

28-11-2019 20:33  

Отключить всю рекламу на сайте

    Дорогой пользователь! Огромная просьба, поблагодарите релизера, оцените раздачу и оставьте свои комментарий, если Вы скачали Склифосовский через торрент бесплатно! Внесите свою лепту в развитие PiratBit!
    Комментировать посты могут только пользователи прошедшие не сложную регистрацию
    Показать сообщения:    

    Склифосовский через торрент
    Скачать бесплатно Склифосовский
    Склифосовский скачать торрент
    Склифосовский смотреть онлайн
    Cкачать фильм Склифосовский бесплатно
    Склифосовский скачать торрент в хорошем качестве
    Склифосовский смотреть онлайн бесплатно в хорошем качестве


    Вы не можете начинать темы
    Вы не можете отвечать на сообщения
    Вы не можете редактировать свои сообщения
    Вы не можете удалять свои сообщения
    Вы не можете голосовать в опросах
    Вы не можете прикреплять файлы к сообщениям
    Вы можете скачивать файлы