Ссылка на приватное зеркало нашего сайта всего за 1$. Внимание количество ограничено!!!

2 сезон

iTunes

1 сезон

1

iTunes

iTunes

iTunes

1 сезон

RePack

30

ИГРА 18+

pack

ВАЖНО

!!Акция!!

Alien_RageХит недели

RePack

MK11
pack

Забери бонус

RePack

jed

!!Акция!!

Alien_Rage

RePack

fifa19

RePack

Assassins Creed: Odyssey

RePack

NEED FOR SPEED™ PAYBACK

4 сезон

9 сезон

Бесстыжие 9 сезон

Все сериалы

все сериалы на PB.wtf

RePack

FAR CRY 5
  

Шатун / Серии: 1-4 из 4 (Александр Хван) [2001, триллер, детектив, криминал, HDTV 1080i] pb.wtf

Шатун через торрент pb.wtf

Размер: 11.94 GB | Добавлен: 1 год 8 мес. назад | Торрент скачан:45 раз
Скачать  

19-02-2019 03:50 Шатун Скачать торрент  

Шатун Год выпуска: 2001
Страна: Россия
Жанр: триллер, детектив, криминал
Продолжительность: ~ 45:30:00
Субтитры: отсутствуют

Режиссер: Александр Хван

rating

В ролях:

Оксана Фандера, Алексей Серебряков, Яна Шивкова, Андрей Ташков, Сергей Векслер, Игорь Яцко, Александр Цуркан, Людмила Мальцева, Александр Шейн (II), Михаил Павлов (II), Константин Мурзенко, Галина Чаянова, Андрей Лисютенко, Александр Никулин, Пётр Катрага, Андрей Седов (II)

Описание:

Экранизация одноимённого романа Андрея Дышева. Загородный коттедж. Закадычные школьные друзья — следователь, врач, богатая домохозяйка, бизнесмен, пьяница и актер, люди разных профессий и образов жизни, собрались отметить скромную дату — 15 лет со дня окончания школы. Внезапно возле дома, на празднике появляется…страшный медведь-шатун. Раздается выстрел. Опасный зверь мертв. Но в шкуре убитого медведя друзья находят…одного из героев застолья приятеля-актера, решившего разыграть друзей. Неудачная шутка обернулась убийством, и опасным оказался не медведь, а прошлое наших героев. Случайным ли был выстрел? Кто стрелял? Видимо, что-то жуткое скрывалось в обличье школьного братства…

Качество: HDTV 1080i
Формат: TS

Видео: 1920x1080 (16:9), 25.000 fps, ~8250 kbps, ~ 0.158 bit/pixel
Аудио#1: 48 КГц, 2 ch, 192 kbps - МР2
Аудио#2: 48 КГц, 6 ch, 448 kbps - AC3
скриншот  скриншот  скриншот  скриншот  скриншот  

скриншот  скриншот  скриншот  скриншот  скриншот  

Общее
Идентификатор : 1 (0x1)
Полное имя : D:\Шатун.2002.HDTV.1080i-ylnian\Шатун.2002.HDTV.1080i-ylnian_1.ts
Формат : MPEG-TS
Размер файла : 3,03 Гбайт
Продолжительность : 44 м. 38 с.
Режим общего битрейта : Переменный
Общий поток : 9705 Кбит/сек

Видео
Идентификатор : 3531 (0xDCB)
Идентификатор меню : 17013 (0x4275)
Формат : AVC
Формат/Информация : Advanced Video Codec
Профиль формата : Main@L4
Настройки формата : CABAC / 3 Ref Frames
Параметр CABAC формата : Да
Параметр RefFrames формата : 3 кадра
Параметр GOP формата : M=4, N=32
Идентификатор кодека : 27
Продолжительность : 44 м. 38 с.
Битрейт : 8579 Кбит/сек
Ширина : 1920 пикселей
Высота : 1080 пикселей
Соотношение сторон : 16:9
Частота кадров : 25,000 кадров/сек
Цветовое пространство : YUV
Субдискретизация насыщенности : 4:2:0
Битовая глубина : 8 бит
Тип развёртки : Чересстрочная
Метод сохранения типа развёртки : Раздельные поля
Порядок развёртки : Верхнее поле первое
Бит/(Пиксели*Кадры) : 0.165
Размер потока : 2,67 Гбайт (88%)
Цветовой диапазон : Limited
Основные цвета : BT.709
Характеристики трансфера : BT.709
Коэффициенты матрицы : BT.709

Аудио #1
Идентификатор : 3532 (0xDCC)
Идентификатор меню : 17013 (0x4275)
Формат : MPEG Audio
Версия формата : Version 1
Профиль формата : Layer 2
Идентификатор кодека : 3
Продолжительность : 44 м. 38 с.
Вид битрейта : Постоянный
Битрейт : 192 Кбит/сек
Каналы : 2 канала
Частота : 48,0 КГц
Частота кадров : 41,667 кадра/сек (1152 SPF)
Метод сжатия : С потерями
Задержка видео : -40 мс.
Размер потока : 61,3 Мбайт (2%)
Язык : Russian

Аудио #2
Идентификатор : 3533 (0xDCD)
Идентификатор меню : 17013 (0x4275)
Формат : AC-3
Формат/Информация : Audio Coding 3
Коммерческое название : Dolby Digital
Идентификатор кодека : 6
Продолжительность : 44 м. 38 с.
Вид битрейта : Постоянный
Битрейт : 448 Кбит/сек
Каналы : 6 каналов
Channel layout : L R C LFE Ls Rs
Частота : 48,0 КГц
Частота кадров : 31,250 кадров/сек (1536 SPF)
Битовая глубина : 16 бит
Метод сжатия : С потерями
Задержка видео : -40 мс.
Размер потока : 143 Мбайт (5%)
Язык : Russian
ServiceKind/String : Complete Main

pb.wtf



Скачать Шатун через торрент http://img10.lostpic.net/2019/02/18/049fe631b0cbd3f617b5758c1627bc7a.jpg Скачать фильм Шатун через торрент бесплантно в хорошем качестве Описание: Экранизация одноимённого романа Андрея Дышева. Загородный коттедж. Закадычные школьные друзья — следователь, врач, богатая ... 7 10 3
Торрент: Зарегистрирован [2019-02-19 03:50] · скачан: 45 раз
Статус: √ проверено
Размер: 11.94 GB
Как cкачать? Как скачать Шатун через торрент | qTorrent

28-11-2019 20:33  

Отключить всю рекламу на сайте

    Дорогой пользователь! Огромная просьба, поблагодарите релизера, оцените раздачу и оставьте свои комментарий, если Вы скачали Шатун через торрент бесплатно! Внесите свою лепту в развитие PiratBit!
    Комментировать посты могут только пользователи прошедшие не сложную регистрацию
    Показать сообщения:    

    Шатун через торрент
    Скачать бесплатно Шатун
    Шатун скачать торрент
    Шатун смотреть онлайн
    Cкачать фильм Шатун бесплатно
    Шатун скачать торрент в хорошем качестве
    Шатун смотреть онлайн бесплатно в хорошем качестве


    Вы не можете начинать темы
    Вы не можете отвечать на сообщения
    Вы не можете редактировать свои сообщения
    Вы не можете удалять свои сообщения
    Вы не можете голосовать в опросах
    Вы не можете прикреплять файлы к сообщениям
    Вы можете скачивать файлы