Ссылка на приватное зеркало нашего сайта всего за 1$. Внимание количество ограничено!!!

2 сезон

iTunes

1 сезон

1

2 сезон

2 сезон

iTunes

1 сезон

RePack

30

Ultimate

ВАЖНО

ИГРА 18+

pack

RePack

MK11
pack

Забери бонус

RePack

jed

!!Акция!!

Alien_Rage

RePack

fifa19

RePack

Assassins Creed: Odyssey

RePack

NEED FOR SPEED™ PAYBACK

4 сезон

9 сезон

Бесстыжие 9 сезон

Все сериалы

все сериалы на PB.wtf

RePack

FAR CRY 5
  

Хроники хищных городов / Mortal Engines (Кристиан Риверс) [2018, фантастика, фэнтези, боевик, триллер, приключения, WEB-DL 1080p] [AMZN Version] DUB [iTunes] pb.wtf

Хроники хищных городов через торрент pb.wtf

Раздают: 1 [ 0.1 KB/s ]
Размер: 8.4 GB | Добавлен: 1 год 9 мес. назад | Торрент скачан:680 раз
Скачать  

19-02-2019 12:50 Хроники хищных городов Скачать торрент  

Хроники хищных городов / Mortal Engines Год выпуска: 2018
Страна: Новая Зеландия, США
Жанр: фантастика, фэнтези, боевик, триллер, приключения
Продолжительность: 02:08:21
Перевод: Дублированный | iTunes
Субтитры: Английские

Режиссер: Кристиан Риверс

rating

В ролях:

Хера Хильмар, Хьюго Уивинг, Джихе, Роберт Шиэн, Стивен Лэнг, Лейла Джордж, Фрэнки Адамс, Карен Писториус, Эндрю Лииз, Колин Сэлмон

Описание:

Прошли тысячелетия после того, как мир настиг апокалипсис. Человечество адаптировалось и теперь живет по новым правилам. Гигантские движущиеся мегаполисы рассекают пустоши и поглощают маленькие города ради ресурсов. Том Нэтсуорти из нижнего уровня великого Лондона оказывается в смертельной опасности, когда на его пути появляется скрывающаяся от закона бунтарка Эстер Шоу. Они не должны были встретиться, но им суждено изменить будущее.

Качество: WEB-DL 1080p | AMZN Version
Формат: MKV

Видео: MPEG-4 AVC, 1920x1080, 8326 Kbit/s, 23.976 fps
Аудио: 48 kHz, AC3, 5.1, 384 Kbps | iTunes | RUS |
Аудио#2: 48 kHz, E-AC3, 5.1, 640 Kbps | Оригинал | ENG |
скриншот  скриншот  скриншот  скриншот  скриншот  

General
Unique ID : 5700650523573646745779436259259606817 (0x449E7C5516863157B9B1B05ACFE6721)
Complete name : D:Video111Mortal.Engines.2018.AMZN.WEB-DL.1080p.seleZen.mkv
Format : Matroska
Format version : Version 4
File size : 8.40 GiB
Duration : 2 h 8 min
Overall bit rate : 9 352 kb/s
Movie name : Mortal Engines 2018 from селезень
Encoded date : UTC 2019-02-19 12:29:01
Writing application : mkvmerge v31.0.0 ('Dolores In A Shoestand') 64-bit
Writing library : libebml v1.3.6 + libmatroska v1.4.9

Video
ID : 1
Format : AVC
Format/Info : Advanced Video Codec
Format profile : High@L4
Format settings : CABAC / 4 Ref Frames
Format settings, CABAC : Yes
Format settings, ReFrames : 4 frames
Codec ID : V_MPEG4/ISO/AVC
Duration : 2 h 8 min
Bit rate mode : Constant
Bit rate : 8 326 kb/s
Nominal bit rate : 10 000 kb/s
Width : 1 920 pixels
Height : 1 080 pixels
Display aspect ratio : 16:9
Frame rate mode : Constant
Frame rate : 23.976 (24000/1001) FPS
Color space : YUV
Chroma subsampling : 4:2:0
Bit depth : 8 bits
Scan type : Progressive
Bits/(Pixel*Frame) : 0.167
Stream size : 7.47 GiB (89%)
Title : AMZN
Language : English
Default : Yes
Forced : No
Color range : Limited
Color primaries : BT.709
Transfer characteristics : BT.709
Matrix coefficients : BT.709

Audio #1
ID : 2
Format : AC-3
Format/Info : Audio Coding 3
Commercial name : Dolby Digital
Codec ID : A_AC3
Duration : 2 h 8 min
Bit rate mode : Constant
Bit rate : 384 kb/s
Channel(s) : 6 channels
Channel layout : L R C LFE Ls Rs
Sampling rate : 48.0 kHz
Frame rate : 31.250 FPS (1536 SPF)
Bit depth : 16 bits
Compression mode : Lossy
Stream size : 353 MiB (4%)
Title : iTunes
Language : Russian
Service kind : Complete Main
Default : Yes
Forced : Yes

Audio #2
ID : 3
Format : E-AC-3
Format/Info : Enhanced AC-3
Commercial name : Dolby Digital Plus
Codec ID : A_EAC3
Duration : 2 h 8 min
Bit rate mode : Constant
Bit rate : 640 kb/s
Channel(s) : 6 channels
Channel layout : L R C LFE Ls Rs
Sampling rate : 48.0 kHz
Frame rate : 31.250 FPS (1536 SPF)
Compression mode : Lossy
Stream size : 588 MiB (7%)
Title : Original
Language : English
Service kind : Complete Main
Default : No
Forced : No

Text
ID : 4
Format : UTF-8
Codec ID : S_TEXT/UTF8
Codec ID/Info : UTF-8 Plain Text
Duration : 2 h 8 min
Bit rate : 47 b/s
Count of elements : 1851
Stream size : 44.4 KiB (0%)
Title : SDH
Language : English
Default : No
Forced : No

Menu
00:00:00.000 : en:1
00:09:25.398 : en:2
00:16:14.306 : en:3
00:24:21.625 : en:4
00:31:25.589 : en:5
00:35:54.065 : en:6
00:41:28.816 : en:7
00:44:54.812 : en:8
00:50:17.801 : en:9
00:54:22.170 : en:10
01:00:52.392 : en:11
01:07:13.064 : en:12
01:11:13.846 : en:13
01:17:38.730 : en:14
01:25:26.614 : en:15
01:33:31.389 : en:16
01:39:29.538 : en:17
01:47:59.255 : en:18
01:52:12.548 : en:19
01:58:34.513 : en:20

pb.wtf



Скачать Хроники хищных городов через торрент https://a.radikal.ru/a06/1901/05/3dfe1656ce71.jpg Скачать фильм Хроники хищных городов через торрент бесплантно в хорошем качестве Описание: Прошли тысячелетия после того, как мир настиг апокалипсис. Человечество адаптировалось и теперь живет по новым правилам. ... 9.8 10 19
Торрент: Зарегистрирован [2019-02-19 12:50] · скачан: 680 раз
Статус: √ проверено
Размер: 8.4 GB
Как cкачать? Как скачать Хроники хищных городов через торрент | qTorrent

% Раздел Тема Автор DL S | L
Ultra HD (UHD: 2K, 4K, 8K) — видео сверхвысокой чёткости [ 85.41 GB ] Хроники хищных городов / Mortal Engines [2018 UHD Blu-ray 2160p] [] [Dolby Vision] sheker187 Скачать
1 | 0
Ultra HD (UHD: 2K, 4K, 8K) — видео сверхвысокой чёткости [ 63.46 GB ] Хроники хищных городов / Mortal Engines [2018 UHD BDRemux 2160p] [] [Dolby Vision TV] sheker187 Скачать
1 | 0
Фильмы 2018 [DVDrip, WEB-DLRip, HDrip] (DUB, MVO) [ 2.18 GB ] Хроники хищных городов / Mortal Engines [2018 BDRip] - [] Twi7ter Скачать
1 | 0
Ultra HD (UHD: 2K, 4K, 8K) — видео сверхвысокой чёткости [ 23.03 GB ] Хроники хищных городов / Mortal Engines [2018 UHD BDRip 2160p] [SDR] DUB [] + MVO [HDRezka Studio] sheker187 Скачать
2 | 0
Ultra HD (UHD: 2K, 4K, 8K) — видео сверхвысокой чёткости [ 13.29 GB ] Хроники хищных городов / Mortal Engines [2018 UHD BDRip 2160p] DUB [] + MVO [HDRezka Studio] sheker187 Скачать
1 | 0
Фильмы 2018 [DVDrip, WEB-DLRip, HDrip] (DUB, MVO) [ 2.59 GB ] Хроники хищных городов / Mortal Engines [2018 BDRip-AVC] DUB [] - ExKinoRay Enigma2010 Скачать
8 | 0
Фильмы 2018 [DVDrip, WEB-DLRip, HDrip] (DUB, MVO) [ 2.49 GB ] Хроники хищных городов / Mortal Engines [2018 BDRip-AVC] MVO [HDRezka Studio] +DUB [] bober100 Скачать
1 | 0

28-11-2019 20:33  

Отключить всю рекламу на сайте

    Дорогой пользователь! Огромная просьба, поблагодарите релизера, оцените раздачу и оставьте свои комментарий, если Вы скачали Хроники хищных городов через торрент бесплатно! Внесите свою лепту в развитие PiratBit!
    Комментировать посты могут только пользователи прошедшие не сложную регистрацию
    Показать сообщения:    

    Хроники хищных городов через торрент
    Скачать бесплатно Хроники хищных городов
    Хроники хищных городов скачать торрент
    Хроники хищных городов смотреть онлайн
    Cкачать фильм Хроники хищных городов бесплатно
    Хроники хищных городов скачать торрент в хорошем качестве
    Хроники хищных городов смотреть онлайн бесплатно в хорошем качестве


    Вы не можете начинать темы
    Вы не можете отвечать на сообщения
    Вы не можете редактировать свои сообщения
    Вы не можете удалять свои сообщения
    Вы не можете голосовать в опросах
    Вы не можете прикреплять файлы к сообщениям
    Вы можете скачивать файлы