2 сезон

iTunes

MVO

1

2 сезон

iTunes

iTunes

1 сезон

RePack

30

Новинка

ВАЖНО

ИГРА 18+

pack

RePack

MK11
pack

Легкие деньги

RePack

jed

RePack

fifa19

RePack

RDR2

RePack

NEED FOR SPEED™ PAYBACK

4 сезон

9 сезон

Бесстыжие 9 сезон

Все сериалы

все сериалы на PB.wtf

RePack

FAR CRY 5

Anonymous, доброй ночи, мы не успеваем собрать деньги на оплату серверов за декабрь и январь, помогите нам пожалуйста в это трудное время. В качестве благодарности мы отключим Вам всю рекламу на сайте (укажите свой ник в строку Ваше имя)!

×
  
Magnet ссылка

Оверлорд / Overlord (Джулиус Эйвери) [2018 г., Ужасы, фантастика, боевик, военный, BDRip 1080p, HEVC (10bit), Дубляж (Лицензия)] pb.wtf

Оверлорд через торрент pb.wtf

Размер: 2.73 GB | Добавлен: 1 год 11 мес. назад | Торрент скачан:468 раз
Скачать  

19-02-2019 13:06 Оверлорд Скачать торрент  

Оверлорд / Overlord
Год выпуска: 2018
Страна: США, Канада
Жанр: Ужасы, фантастика, боевик, военный
Продолжительность: 01:49:47
Перевод: Дубляж (Лицензия)
Субтитры: Русские (форсированные, полные), английские

Режиссер: Джулиус Эйвери

rating

В ролях: Джован Адепо, Уайатт Расселл, Матильда Олливье, Йохан Филип Асбек, Джон Магаро, Иэн де Кестекер, Джейкоб Андерсон, Доминик Эпплуайт, Джанни Тофер, Джозеф Куинн

Описание: Накануне высадки союзников в Нормандии отряд американских десантников проникают в оккупированный немцами посёлок, чтобы разрушить их радиомачту. Лазутчикам предстоит столкнуться не только с военными, но и с жуткими последствиями нацистских экспериментов.
Доп. информация: -
H.265/HEVC (High Efficiency Video Coding) - это новый стандарт кодирования видео.
- Стандарт H.265/HEVC является логическим продолжением стандарта
H.264/AVC (Advanced Video Coding), и характеризуется более эффективными
алгоритмами сжатия, а также поддержкой высокого разрешения вплоть до 8K UHD
(8192x4320). Первая версия стандарта H.265 была опубликована в начале 2013 года.
- Рипы в фомате HEVC поддерживается не всеми аппаратными проигрывателями.
- Для корректного воспроизведения может потребоваться обновление ПО.
- Владельцам несовместимого железа просьба не беспокоить,
есть альтернативные релизы.
Качество: BDRip 1080p
Формат: MKV
Видео кодек: H.265
Аудио кодек: AC3
Видео: 1920x800, ~2786 Kbps
Аудио#1: AC3, 6 ch, 384 Kbps - Дублированный
Аудио#2: AC3, 6 ch, 384 Kbps - Английский


Общее
Уникальный идентификатор : 133188611617698549798292981109417936234 (0x6433318B9D272F459CC835916199856A)
Полное имя : F:\РАЗДАЧИ\Оверлорд. 2018. 1080p. 10bit. HEVC.mkv
Формат : Matroska
Версия формата : Version 4 / Version 2
Размер файла : 2,73 Гбайт
Продолжительность : 1 ч. 49 м.
Общий поток : 3556 Кбит/сек
Дата кодирования : UTC 2019-02-19 12:47:00
Программа кодирования : mkvmerge v28.2.0 ('The Awakening') 64-bit
Библиотека кодирования : libebml v1.3.6 + libmatroska v1.4.9
Обложка : Yes
Attachments : cover.jpg

Видео
Идентификатор : 1
Формат : HEVC
Формат/Информация : High Efficiency Video Coding
Профиль формата : Main 10@L4@Main
Идентификатор кодека : V_MPEGH/ISO/HEVC
Продолжительность : 1 ч. 49 м.
Битрейт : 2786 Кбит/сек
Ширина : 1920 пикселей
Высота : 800 пикселей
Соотношение сторон : 2,40:1
Режим частоты кадров : Постоянный
Частота кадров : 23,976 (24000/1001) кадра/сек
Цветовое пространство : YUV
Субдискретизация насыщенности : 4:2:0
Битовая глубина : 10 бит
Бит/(Пиксели*Кадры) : 0.076
Размер потока : 2,14 Гбайт (78%)
Default : Да
Forced : Нет

Аудио #1
Идентификатор : 2
Формат : AC-3
Формат/Информация : Audio Coding 3
Идентификатор кодека : A_AC3
Продолжительность : 1 ч. 49 м.
Вид битрейта : Постоянный
Битрейт : 384 Кбит/сек
Каналы : 6 каналов
Расположение каналов : Front: L C R, Side: L R, LFE
Частота : 48,0 КГц
Частота кадров : 31,250 кадров/сек (1536 SPF)
Битовая глубина : 16 бит
Метод сжатия : С потерями
Размер потока : 301 Мбайт (11%)
Заголовок : Russian DUB License
Язык : Russian
ServiceKind/String : Complete Main
Default : Да
Forced : Нет

Аудио #2
Идентификатор : 3
Формат : AC-3
Формат/Информация : Audio Coding 3
Идентификатор кодека : A_AC3
Продолжительность : 1 ч. 49 м.
Вид битрейта : Постоянный
Битрейт : 384 Кбит/сек
Каналы : 6 каналов
Расположение каналов : Front: L C R, Side: L R, LFE
Частота : 48,0 КГц
Частота кадров : 31,250 кадров/сек (1536 SPF)
Битовая глубина : 16 бит
Метод сжатия : С потерями
Размер потока : 302 Мбайт (11%)
Язык : English
ServiceKind/String : Complete Main
Default : Нет
Forced : Нет

Текст #1
Идентификатор : 4
Формат : UTF-8
Идентификатор кодека : S_TEXT/UTF8
Идентификатор кодека/Информация : UTF-8 Plain Text
Продолжительность : 1 ч. 22 м.
Битрейт : 5 бит/сек
ElementCount : 94
Размер потока : 3,22 Кбайт (0%)
Заголовок : Forced
Язык : Russian
Default : Да
Forced : Да

Текст #2
Идентификатор : 5
Формат : UTF-8
Идентификатор кодека : S_TEXT/UTF8
Идентификатор кодека/Информация : UTF-8 Plain Text
Продолжительность : 1 ч. 42 м.
Битрейт : 59 бит/сек
ElementCount : 1015
Размер потока : 44,9 Кбайт (0%)
Язык : Russian
Default : Нет
Forced : Нет

Текст #3
Идентификатор : 6
Формат : UTF-8
Идентификатор кодека : S_TEXT/UTF8
Идентификатор кодека/Информация : UTF-8 Plain Text
Продолжительность : 1 ч. 42 м.
Битрейт : 49 бит/сек
ElementCount : 1447
Размер потока : 37,3 Кбайт (0%)
Заголовок : SDH
Язык : English
Default : Нет
Forced : Нет

pb.wtf



Скачать Оверлорд через торрент http://img10.lostpic.net/2019/02/17/2d746f248ea0520882baa34e64220f5f.jpg Скачать фильм Оверлорд через торрент бесплантно в хорошем качестве Описание: Накануне высадки союзников в Нормандии отряд американских десантников проникают в оккупированный немцами посёлок, чтобы разрушить ... 10 10 8
Info! Золотая раздача, скачанное не засчитывается.
Торрент: Зарегистрирован [2019-02-19 13:06] · скачан: 468 раз
Статус: √ проверено
Размер: 2.73 GB
Как cкачать? Как скачать Оверлорд через торрент | UTorrent

% Раздел Тема Автор DL S | L
Фильмы [HD 720p, 1080p] (Хороший звук DUB, MVO) [ 4.28 GB ] Оверлорд / Overlord [2018 военный BDRip 720p Dub MVO AVO] от ExKinoRay morfyi Скачать
2 | 0
Ultra HD (UHD: 2K, 4K, 8K) — видео сверхвысокой чёткости [ 27.6 GB ] Оверлорд / Overlord [2018 UHD BDRip 2160p] DUB [] sheker187 Скачать
2 | 0
Фильмы 2018 [DVDrip, WEB-DLRip, HDrip] (DUB, MVO) [ 1.46 GB ] Оверлорд / Overlord [2018 BDRip] - [] Twi7ter Скачать
1 | 0
Фильмы 2018 [DVDrip, WEB-DLRip, HDrip] (DUB, MVO) [ 2.18 GB ] Оверлорд / Overlord [2018 BDRip] - [] Twi7ter Скачать
1 | 0
Фильмы 2018 [DVDrip, WEB-DLRip, HDrip] (DUB, MVO) [ 1.91 GB ] Оверлорд / Overlord [2018 BDRip-AVC] MVO [HDrezka Studio] +DUB [] bober100 Скачать
1 | 0
Фильмы [HD 720p, 1080p] (Хороший звук DUB, MVO) [ 5.28 GB ] Оверлорд / Overlord [2018 BDRip 720p] DUB [] sheker187 Скачать
3 | 0
Фильмы (Blu-ray, BD-Remux, HDDVD) [ 25.31 GB ] Оверлорд / Overlord [2018 BDRemux 1080p] DUB + MVO [HDrezka Studio] sheker187 Скачать
1 | 0

28-11-2019 20:33  

Отключить всю рекламу на сайте

    Дорогой пользователь! Огромная просьба, поблагодарите релизера, оцените раздачу и оставьте свои комментарий, если Вы скачали Оверлорд через торрент бесплатно! Внесите свою лепту в развитие PiratBit!
    Комментировать посты могут только пользователи прошедшие не сложную регистрацию
    Показать сообщения:    

    Оверлорд через торрент
    Скачать бесплатно Оверлорд
    Оверлорд скачать торрент
    Оверлорд смотреть онлайн
    Cкачать фильм Оверлорд бесплатно
    Оверлорд скачать торрент в хорошем качестве
    Оверлорд смотреть онлайн бесплатно в хорошем качестве


    Вы не можете начинать темы
    Вы не можете отвечать на сообщения
    Вы не можете редактировать свои сообщения
    Вы не можете удалять свои сообщения
    Вы не можете голосовать в опросах
    Вы не можете прикреплять файлы к сообщениям
    Вы можете скачивать файлы