Ссылка на приватное зеркало нашего сайта всего за 1$. Внимание количество ограничено!!!

2 сезон

iTunes

1 сезон

1

2 сезон

2 сезон

iTunes

1 сезон

RePack

30

Ultimate

ВАЖНО

ИГРА 18+

pack

RePack

MK11
pack

Забери бонус

RePack

jed

!!Акция!!

Alien_Rage

RePack

fifa19

RePack

Assassins Creed: Odyssey

RePack

NEED FOR SPEED™ PAYBACK

4 сезон

9 сезон

Бесстыжие 9 сезон

Все сериалы

все сериалы на PB.wtf

RePack

FAR CRY 5
  

Роковой патруль / Doom Patrol / Сезон: 1 / Серии: 1-15 из 15 (Крис Мэнли, Салли Ричардсон-Уитфилд, Глен Винтер) [2019, Фантастика, боевик, драма, приключения, WEB-DL 720p] MVO [LostFilm] pb.wtf

Роковой патруль через торрент pb.wtf

Раздают: 1 [ 0 KB/s ] Качают: 1 [ 0 KB/s ]
Размер: 18.27 GB | Добавлен: 1 год 5 мес. назад | Торрент скачан:134 раза
Скачать  

19-02-2019 18:07 Роковой патруль Скачать торрент  

Роковой патруль / Doom Patrol Год выпуска: 2019
Страна: США
Жанр: Фантастика, боевик, драма, приключения
Продолжительность: ~ 00:50:00
Перевод: Профессиональный (многоголосый закадровый) | LostFilm

Режиссёр: Крис Мэнли, Салли Ричардсон-Уитфилд, Глен Винтер

В ролях:

Дайан Герерро, Эйприл Боулби, Мэтт Бомер, Тимоти Далтон, Райли Шэнэхэн, Мэттью Зук, Брендан Фрейзер, Алан Тьюдик, Джоиван Уэйд, Кайл Расселл Клементс

Описание:

Сюжет повествует о супергероях, обретших сверхспособности в результате изувечивших их роковых случайностей. В состав необычной команды под руководством сумасшедшего учёного Найлза Колдера (также известного как Шеф) входят Роботмен, Негативный Человек, Безумная Джейн и Эластичная Женщина. Сломленные и искалеченные, эти люди находят применение своим способностям, защищая Землю от самых невероятных угроз. Роковой патруль — команда изгоев, воюющих за спасение мира, которому нет до них никакого дела.

rating

Качество: WEB-DL 720p | Чистый рип
Формат: MKV

Видео: 1280х720 at 23.976 fps, MPEG-4 AVC, ~2900 kbps avg
Аудио Rus: Russian: 48 kHz, AC3, 2/0 (L,R) ch, ~192 kbps avg |Многоголосый закадровый, LostFilm|
Аудио Eng: English: 48 kHz, AC3, 2/0 (L,R) ch, ~192 kbps avg
скриншот  скриншот  скриншот  скриншот  

Общее
Уникальный идентификатор : 211625034549731936446035334729993921223 (0x9F357FC52842E88EABF0551249BDA2C7)
Полное имя : D:\Doom.Patrol.S01.DCU.WEB-DL.720p\Doom.Patrol.S01E01.Pilot.WEB-DL.720p.mkv
Формат : Matroska
Версия формата : Version 4 / Version 2
Размер файла : 1,38 Гбайт
Продолжительность : 58 м. 31 с.
Общий поток : 3365 Кбит/сек
Дата кодирования : UTC 2019-02-19 17:20:35
Программа кодирования : mkvmerge v6.9.1 ('Blue Panther') 64bit built on Apr 18 2014 18:23:38
Библиотека кодирования : libebml v1.3.0 + libmatroska v1.4.1

Видео
Идентификатор : 1
Формат : AVC
Формат/Информация : Advanced Video Codec
Профиль формата : Baseline@L3.1
Параметр CABAC формата : Нет
Параметр RefFrames формата : 4 кадра
Параметр GOP формата : M=1, N=48
Идентификатор кодека : V_MPEG4/ISO/AVC
Продолжительность : 58 м. 31 с.
Битрейт : 2914 Кбит/сек
Ширина : 1280 пикселей
Высота : 720 пикселей
Соотношение сторон : 16:9
Режим частоты кадров : Постоянный
Частота кадров : 23,976 (24000/1001) кадра/сек
Цветовое пространство : YUV
Субдискретизация насыщенности : 4:2:0
Битовая глубина : 8 бит
Тип развёртки : Прогрессивная
Бит/(Пиксели*Кадры) : 0.132
Размер потока : 1,19 Гбайт (87%)
Библиотека кодирования : Zencoder Video Encoding System
Язык : English
Default : Да
Forced : Нет
Цветовой диапазон : Limited
Основные цвета : BT.709
Характеристики трансфера : BT.709
Коэффициенты матрицы : BT.709

Аудио #1
Идентификатор : 2
Формат : AC-3
Формат/Информация : Audio Coding 3
Расширение режима : CM (complete main)
Параметр Endianness формата : Big
Идентификатор кодека : A_AC3
Продолжительность : 58 м. 31 с.
Вид битрейта : Постоянный
Битрейт : 192 Кбит/сек
Каналы : 2 канала
Расположение каналов : Front: L R
Частота : 48,0 КГц
Частота кадров : 31,250 кадров/сек (1536 spf)
Метод сжатия : С потерями
Размер потока : 80,4 Мбайт (6%)
Заголовок : LostFilm
Язык : Russian
Default : Да
Forced : Нет

Аудио #2
Идентификатор : 3
Формат : AC-3
Формат/Информация : Audio Coding 3
Расширение режима : CM (complete main)
Параметр Endianness формата : Big
Идентификатор кодека : A_AC3
Продолжительность : 58 м. 31 с.
Вид битрейта : Постоянный
Битрейт : 192 Кбит/сек
Каналы : 2 канала
Расположение каналов : Front: L R
Частота : 48,0 КГц
Частота кадров : 31,250 кадров/сек (1536 spf)
Метод сжатия : С потерями
Размер потока : 80,4 Мбайт (6%)
Заголовок : original
Язык : English
Default : Нет
Forced : Нет

Когда раздача ведётся путём добавления новых серий, при каждом добавлении создётся новый торрент. Чтобы начать докачку новой серии, пользователям необходимо сделать следующее:
(1) остановить скачивание,
(2) удалить старый торрент у себя из клиента (старые серии удалять не надо),
(3) скачать новый торрент и запустить его у себя в клиенте вместо старого, при этом указать клиенту путь в старую папку, куда и должно происходить скачивание новых серий.
Ваш клиент при этом должен произвести хеширование (проверку) старой папки (если не производит сам - помогите ему сделать это), и будет докачивать только те серии, которых у вас ещё нет. Старые серии при этом не удаляются, а продолжают раздаваться!
Eсли вы уже удалили старые серии, то предотвратить повторную закачку старых серий можно, отжав галочку в соответсвующих местах при запуске нового торрента. По возможности, желательно не удалять старые серии как можно дольше, чтобы релизёр не столько продолжал раздавать старые серии, а смог сконцентрироваться на новых.
pb.wtf



Скачать Роковой патруль через торрент https://i109.fastpic.ru/big/2019/0220/b5/bb0e2ec102c438d1544c536ae90d20b5.jpg Скачать фильм Роковой патруль через торрент бесплантно в хорошем качестве Описание:Сюжет повествует о супергероях, обретших сверхспособности в результате изувечивших их роковых случайностей. В состав необычной ... 10 10 7
Торрент: Зарегистрирован [2019-05-27 08:55] · скачан: 134 раз
Статус: √ проверено
Размер: 18.27 GB
Как cкачать? Как скачать Роковой патруль через торрент | qTorrent

% Раздел Тема Автор DL S | L
Зарубежные сериалы [ 26.31 GB ] Роковой патруль / Doom Patrol / Сезон: 1 / Серии: 1-15 из 15 [2019 WEBRip 1080p] [MVO] killermax2013 Скачать
1 | 0
Зарубежные сериалы [ 9.39 GB ] Роковой патруль / Патруль судного дня / Doom Patrol / Сезон: 1 / Серии: 1-15 из 15 [2019 WEB-DLRip] MVO [Good People] bober100 Скачать
3 | 0
Зарубежные сериалы [ 17.93 GB ] Роковой патруль / Патруль судного дня / Doom Patrol / Сезон: 1 / Серии: 1-15 из 15 [2019 WEBRip 720p] MVO [Good People] bober100 Скачать
2 | 0
Зарубежные сериалы [ 30.11 GB ] Роковой патруль / Doom Patrol / Сезон: 1 / Серии: 1-15 из 15 [2019 WEB-DL 1080p] [MVO] killermax2013 Скачать
1 | 0
Зарубежные сериалы [ 11.93 GB ] Роковой патруль / Doom Patrol / Сезон: 1 / Серии: 1-15 из 15 [2019 WEB-DLRip] [MVO] killermax2013 Скачать
1 | 0
Зарубежные сериалы [ 26.93 GB ] Роковой патруль / Doom Patrol / Сезон: 1 / Серии: 1-15 из 15 [2019 WEB-DL 1080p] MVO [LostFilm] bober100 Скачать
3 | 1


Последний раз редактировалось: bober100 (2019-05-27 08:55), всего редактировалось 7 раз(а)

28-11-2019 20:33  

Отключить всю рекламу на сайте

20-02-2019 09:20 Роковой патруль Скачать торрент  

рейтинг на пол балла меньше, чем у игры престолов. однако, серьезная заявкаpb.wtf



11-03-2019 09:44 Роковой патруль Скачать торрент  

Реальный сериал не то что та мыльная опера.pb.wtf



27-05-2019 09:04 Роковой патруль Скачать торрент  

сериал не без косяков, но интересный и главное необычныйpb.wtf



    Дорогой пользователь! Огромная просьба, поблагодарите релизера, оцените раздачу и оставьте свои комментарий, если Вы скачали Роковой патруль через торрент бесплатно! Внесите свою лепту в развитие PiratBit!
    Комментировать посты могут только пользователи прошедшие не сложную регистрацию
    Показать сообщения:    

    Роковой патруль через торрент
    Скачать бесплатно Роковой патруль
    Роковой патруль скачать торрент
    Роковой патруль смотреть онлайн
    Cкачать фильм Роковой патруль бесплатно
    Роковой патруль скачать торрент в хорошем качестве
    Роковой патруль смотреть онлайн бесплатно в хорошем качестве


    Вы не можете начинать темы
    Вы не можете отвечать на сообщения
    Вы не можете редактировать свои сообщения
    Вы не можете удалять свои сообщения
    Вы не можете голосовать в опросах
    Вы не можете прикреплять файлы к сообщениям
    Вы можете скачивать файлы