Ссылка на приватное зеркало всего за 1$. Внимание количество ограничено!!!

iTunes

1+1

iTunes

мы

WEB-DL

1

iTunes

Чернобыль

iTunes

Ральф против интернета

Лицензия

ПШазам

Лицензия

Оно 2

Лицензия

30
pack

Вам бонус

ВАЖНО

!!Акция!!

Alien_RageХит недели

RePack

Resident Evil 21

ИГРА 18+

pack

RePack

jed

!!Акция!!

Alien_Rage

RePack

fifa19

RePack

Assassins Creed: Odyssey

RePack

NEED FOR SPEED™ PAYBACK

3 сезон

9 сезон

Бесстыжие 9 сезон

Все сериалы

все сериалы на PB.wtf

RePack

FAR CRY 5
Ребята, катастрофически не хватает 1900р. для оплаты серверов за Октябрь (всвязи с блокировками трафик упал в 3 раза), 1-2р., выручайте.
  

Красивый мальчик / Beautiful Boy (Феликс ван Грунинген) [2018, Драма, биография, BDRip-AVC] MVO [HDRezka Studio] pb.wtf

Красивый мальчик через торрент pb.wtf

Размер: 2.42 GB | Добавлен: 9 мес. назад | Торрент скачан:290 раз
Скачать  

20-02-2019 06:17 Красивый мальчик Скачать торрент  

Красивый мальчик / Beautiful Boy Год выпуска: 2018
Страна: США
Жанр: Драма, биография
Продолжительность: 02:00:52
Перевод: Профессиональный (многоголосый) | HDRezka Studio
Субтитры: Русские (полные), Английские (полные, SDH)

Режиссер: Феликс ван Грунинген

rating

В ролях:

Стив Карелл, Тимоти Шаламе, Мора Тирни, Кристиан Конвери, Окли Булл, Кейтлин Дивер, Эми Райан, Стефани Скотт, Джулиан Уоркс, Ке Лоуренс

Описание:

Дэвид Шефф переживает трагедию: его милый и очаровательный сын Ник стал наркоманом. Откуда взялась пагубная привычка? Ник растёт в любящей семье, он отлично учится, ни в чём не нуждается. Развод родителей прошёл спокойно. С матерью, живущей в Лос-Анджелесе, Ник общается до сих пор. Пытаясь найти ответы, Дэвид вспоминает, каким ребёнок был раньше - вдумчивым и красивым мальчиком.

Качество: BDRip-AVC
Формат: MKV

Видео: 1024x554 (1.85:1), 23,976 fps, x264 ~2 231 kbps avg, 0.164 bit/pixel
Аудио#1: 48 kHz, AC3 Dolby Digital, 2 (L,R) ch, ~192.00 kbps avg | RUS (HDRezka Studio)
Аудио#2: 48 kHz, AC3 Dolby Digital, 3/2 (L,C,R,l,r) + LFE ch, ~448.00 kbps avg | ENG
скриншот  скриншот  скриншот  скриншот  

Общее
Уникальный идентификатор : 167797981335762520796494986757239161610 (0x7E3CB737366D8C01FD064B9C0BB3430A)
Полное имя : F:OlLanDGroupBeautiful.Boy.2018.BDRip(AVC).OlLanDGroup.mkv
Формат : Matroska
Версия формата : Version 4 / Version 2
Размер файла : 2,42 Гбайт
Продолжительность : 2 ч. 0 м.
Общий поток : 2872 Кбит/сек
Название фильма : Beautiful Boy (2018) #TorpedoUK#
Дата кодирования : UTC 2019-02-20 05:02:25
Программа кодирования : mkvmerge v29.0.0 ('Like It Or Not') 64-bit
Библиотека кодирования : libebml v1.3.6 + libmatroska v1.4.9

Видео
Идентификатор : 1
Формат : AVC
Формат/Информация : Advanced Video Codec
Профиль формата : High@L4.1
Параметр CABAC формата : Да
Параметр ReFrames формата : 10 кадров
Идентификатор кодека : V_MPEG4/ISO/AVC
Продолжительность : 2 ч. 0 м.
Битрейт : 2231 Кбит/сек
Ширина : 1024 пикселя
Высота : 554 пикселя
Соотношение сторон : 1,85:1
Режим частоты кадров : Постоянный
Частота кадров : 23,976 (24000/1001) кадра/сек
Цветовое пространство : YUV
Субдискретизация насыщенности : 4:2:0
Битовая глубина : 8 бит
Тип развёртки : Прогрессивная
Бит/(Пиксели*Кадры) : 0.164
Размер потока : 1,88 Гбайт (78%)
Библиотека кодирования : x264 core 146 r2538 121396c
Настройки программы : cabac=1 / ref=10 / deblock=1:-2:-3 / analyse=0x3:0x113 / me=umh / subme=11 / psy=1 / psy_rd=0.95:0.07 / mixed_ref=1 / me_range=48 / chroma_me=1 / trellis=2 / 8x8dct=1 / cqm=0 / deadzone=21,11 / fast_pskip=1 / chroma_qp_offset=-3 / threads=6 / lookahead_threads=1 / sliced_threads=0 / nr=0 / decimate=1 / interlaced=0 / bluray_compat=0 / constrained_intra=0 / bframes=11 / b_pyramid=2 / b_adapt=2 / b_bias=0 / direct=3 / weightb=1 / open_gop=0 / weightp=2 / keyint=240 / keyint_min=23 / scenecut=40 / intra_refresh=0 / rc_lookahead=40 / rc=2pass / mbtree=0 / bitrate=2231 / ratetol=1.0 / qcomp=0.60 / qpmin=0 / qpmax=69 / qpstep=4 / cplxblur=20.0 / qblur=0.5 / vbv_maxrate=50000 / vbv_bufsize=62500 / nal_hrd=none / filler=0 / ip_ratio=1.40 / pb_ratio=1.30 / aq=1:1.00
Язык : English
Default : Да
Forced : Нет

Аудио #1
Идентификатор : 2
Формат : AC-3
Формат/Информация : Audio Coding 3
Расширение режима : CM (complete main)
Параметр Endianness формата : Big
Идентификатор кодека : A_AC3
Продолжительность : 2 ч. 0 м.
Вид битрейта : Постоянный
Битрейт : 192 Кбит/сек
Каналы : 2 канала
Расположение каналов : Front: L R
Частота : 48,0 КГц
Частота кадров : 31,250 кадров/сек (1536 spf)
Битовая глубина : 16 бит
Метод сжатия : С потерями
Размер потока : 166 Мбайт (7%)
Заголовок : MVO [HDRezka Studio]
Язык : Russian
Default : Да
Forced : Нет

Аудио #2
Идентификатор : 3
Формат : AC-3
Формат/Информация : Audio Coding 3
Расширение режима : CM (complete main)
Параметр Endianness формата : Big
Идентификатор кодека : A_AC3
Продолжительность : 2 ч. 0 м.
Вид битрейта : Постоянный
Битрейт : 448 Кбит/сек
Каналы : 6 каналов
Расположение каналов : Front: L C R, Side: L R, LFE
Частота : 48,0 КГц
Частота кадров : 31,250 кадров/сек (1536 spf)
Битовая глубина : 16 бит
Метод сжатия : С потерями
Размер потока : 387 Мбайт (16%)
Заголовок : [Original]
Язык : English
Default : Нет
Forced : Нет

Текст #1
Идентификатор : 4
Формат : UTF-8
Идентификатор кодека : S_TEXT/UTF8
Идентификатор кодека/Информация : UTF-8 Plain Text
Продолжительность : 1 ч. 59 м.
Битрейт : 79 бит/сек
Count of elements : 1387
Размер потока : 69,6 Кбайт (0%)
Заголовок : Full [Focs Studio]
Язык : Russian
Default : Нет
Forced : Нет

Текст #2
Идентификатор : 5
Формат : UTF-8
Идентификатор кодека : S_TEXT/UTF8
Идентификатор кодека/Информация : UTF-8 Plain Text
Продолжительность : 1 ч. 59 м.
Битрейт : 44 бит/сек
Count of elements : 1414
Размер потока : 38,8 Кбайт (0%)
Заголовок : Full
Язык : English
Default : Нет
Forced : Нет

Текст #3
Идентификатор : 6
Формат : UTF-8
Идентификатор кодека : S_TEXT/UTF8
Идентификатор кодека/Информация : UTF-8 Plain Text
Продолжительность : 1 ч. 59 м.
Битрейт : 59 бит/сек
Count of elements : 1960
Размер потока : 51,9 Кбайт (0%)
Заголовок : SDH
Язык : English
Default : Нет
Forced : Нет

Меню
00:00:00.000 : en:Studio Logo
00:00:25.000 : en:What can I do to help him?
00:02:02.000 : en:Nic is missing again
00:06:55.000 : en:Title Sequence
00:07:11.000 : en:The Sheff's seek professional help
00:16:19.000 : en:Nic and David have a heart to heart
00:24:22.000 : en:Nic makes a big decision
00:31:22.000 : en:Relapse is a part of recovery
00:39:08.000 : en:David tries to understand however he can
00:46:08.000 : en:David is just trying to keep his family together
00:53:55.000 : en:I love you more than everything
01:00:13.000 : en:Nic tries an LA program
01:05:21.000 : en:Nic has a great weekend
01:15:35.000 : en:Nic's depression creeps back in
01:22:46.000 : en:David and Karen are having a hard time
01:35:31.000 : en:Sometimes a person needs tough love
01:41:08.000 : en:Miracles can happen
01:49:52.000 : en:Acknowledgement
01:50:27.000 : en:End Credits

pb.wtf



Скачать Красивый мальчик через торрент https://i109.fastpic.ru/big/2019/0220/a8/8ccb240a223c428d8f1e44643ce5a1a8.jpg Скачать фильм Красивый мальчик через торрент бесплантно в хорошем качестве Описание: Дэвид Шефф переживает трагедию: его милый и очаровательный сын Ник стал наркоманом. Откуда взялась пагубная привычка? Ник растёт ... 10 10 5
Торрент: Зарегистрирован [2019-02-20 06:17] · скачан: 290 раз
Статус: T временная
Размер: 2.42 GB
Как cкачать? Как скачать Красивый мальчик через торрент | qTorrent

% Раздел Тема Автор DL S | L
Фильмы 2018 [DVDrip, WEB-DLRip, HDrip] (DUB, MVO) [ 2.13 GB ] Красивый мальчик / Beautiful Boy [2018 биография BDRip] bober100 Скачать
3 | 0
Фильмы [HD 720p, 1080p] (Хороший звук DUB, MVO) [ 13.08 GB ] Красивый мальчик / Beautiful Boy [2018 биография BDRip 1080p] bober100 Скачать
1 | 0
Фильмы [HD 720p, 1080p] (Хороший звук DUB, MVO) [ 6.89 GB ] Красивый мальчик / Beautiful Boy [2018 биография BDRip 720p] bober100 Скачать
1 | 0
Фильмы (Blu-ray, BD-Remux, HDDVD) [ 28.39 GB ] Красивый мальчик / Beautiful Boy [2018 биография BD Remux 1080p] bober100 Скачать
1 | 0
Фильмы 2018 [DVDrip, WEB-DLRip, HDrip] (DUB, MVO) [ 1.46 GB ] Красивый мальчик / Beautiful Boy [2018 биография BDRip] bober100 Скачать
1 | 0
T Фильмы [HD 720p, 1080p] (Хороший звук DUB, MVO) [ 11.68 GB ] Красивый мальчик / Beautiful Boy [2018 биография BDRip 1080p] MVO [HDRezka Studio] bober100 Скачать
1 | 0

28-11-2019 20:33  

Отключить всю рекламу на сайте

20-02-2019 15:33 Красивый мальчик Скачать торрент  

даже не знаю что хуже сын наркоман или сын гей!pb.wtf



20-02-2019 16:38 Красивый мальчик Скачать торрент  

BoberKC писал(а):

даже не знаю что хуже сын наркоман или сын гей!

если от наркомании лечат, то от голубизны лекарства нетpb.wtf



22-02-2019 09:05 Красивый мальчик Скачать торрент  

crest96 писал(а):

BoberKC писал(а):

даже не знаю что хуже сын наркоман или сын гей!

если от наркомании лечат, то от голубизны лекарства нет

у них есть что-то общее, наверное и то и другое - жопаpb.wtf



    Дорогой пользователь! Огромная просьба, поблагодарите релизера, оцените раздачу и оставьте свои комментарий, если Вы скачали Красивый мальчик через торрент бесплатно! Внесите свою лепту в развитие PiratBit!
    Комментировать посты могут только пользователи прошедшие не сложную регистрацию
    Показать сообщения:    

    Красивый мальчик через торрент
    Скачать бесплатно Красивый мальчик
    Красивый мальчик скачать торрент
    Красивый мальчик смотреть онлайн
    Cкачать фильм Красивый мальчик бесплатно
    Красивый мальчик скачать торрент в хорошем качестве
    Красивый мальчик смотреть онлайн бесплатно в хорошем качестве


    Вы не можете начинать темы
    Вы не можете отвечать на сообщения
    Вы не можете редактировать свои сообщения
    Вы не можете удалять свои сообщения
    Вы не можете голосовать в опросах
    Вы не можете прикреплять файлы к сообщениям
    Вы можете скачивать файлы