Ссылка на приватное зеркало нашего сайта всего за 1$. Внимание количество ограничено!!!

2 сезон

iTunes

1 сезон

1

iTunes

iTunes

iTunes

1 сезон

RePack

30

ИГРА 18+

pack

ВАЖНО

!!Акция!!

Alien_RageХит недели

RePack

MK11
pack

Забери бонус

RePack

jed

!!Акция!!

Alien_Rage

RePack

fifa19

RePack

Assassins Creed: Odyssey

RePack

NEED FOR SPEED™ PAYBACK

4 сезон

9 сезон

Бесстыжие 9 сезон

Все сериалы

все сериалы на PB.wtf

RePack

FAR CRY 5
  

Двойная страховка / Double Indemnity (Билли Уайлдер) [1944, фильм-нуар, триллер, драма, криминал, детектив, BDRip 1080p by msltel] 2 x MVO, AVO pb.wtf

Двойная страховка через торрент pb.wtf

Размер: 11.86 GB | Добавлен: 1 год 8 мес. назад | Торрент скачан:7 раз
Скачать  

20-02-2019 11:04 Двойная страховка Скачать торрент  

Название: Двойная страховка
Оригинальное название: Double Indemnity
Год выпуска: 1944
Страна: США
Жанр: фильм-нуар, триллер, драма, криминал, детектив
Продолжительность: 01:47:55
Перевод: профессиональный многоголосый, авторский

Режиссер: Билли Уайлдер
В ролях: Фред МакМюррэй, Эдвард Дж. Робинсон, Барбара Стэнвик, Портер Холл, Жан Хезер, Том Пауэрс, Байрон Барр, Ричард Гейнс, Фортунио Бонанова, Джон Филлибер, Джеймс Адамсон, Джон Берри, Эдмунд Кобб, Кернан Криппс, Бетти Фаррингтон, Бесс Флауэрс

О фильме: Страховой агент Уолтер Нефф отправляется продлить полис на машину некоему мистеру Дитрихсону. В его доме он встречается с миссис Дитрихсон и мгновенно воспламеняется. Далее, как и во всех «чёрных» фильмах, красотка делает Уолтеру предложение, от которого он не может отказаться и… совершает первый шаг в объятия Смерти... По мотивам одноимённой повести Джеймса Кейна, основанной, в свою очередь, на реальном преступлении в 1927 году.



Качество: BDRip 1080p
Формат: MKV
Видео: MPEG-4 AVC, 13.6 Mбит/с, 1456x1080, 23.976 кадр/с
Аудио 1: русский, AC3, 192 kbps, 2 ch, 48 kHz [закадровый многоголосый, Film prestige]
Аудио 2: русский, AC3, 224 kbps, 2 ch, 48 kHz [закадровый многоголосый, Total DVD]
Аудио 3: русский, AC3, 192 kbps, 2 ch, 48 kHz [авторский, Пётр Карцев]
Аудио 4: английский, DTS, 1509 kbps, 2 ch, 48 kHz [оригинал]
Субтитры 1: русские
Субтитры 2: английские
Главы/чаптеры
Общее
Уникальный идентификатор : 198634166710259050586063307711505654021 (0x956F8C88F1284CAC904ED248B0FE6105)
Полное имя : D:\Video\Двойная страховка.1944.BDRip 1080p by msltel.mkv
Формат : Matroska
Версия формата : Version 4
Размер файла : 11,9 Гбайт
Продолжительность : 1 ч. 47 м.
Общий поток : 15,8 Мбит/сек
Название фильма : Rip by msltel
Дата кодирования : UTC 2019-02-19 19:56:37
Программа кодирования : mkvmerge v8.2.0 ('World of Adventure') 64bit
Библиотека кодирования : libebml v1.3.1 + libmatroska v1.4.2

Видео
Идентификатор : 1
Формат : AVC
Формат/Информация : Advanced Video Codec
Профиль формата : High@L4.1
Настройки формата : CABAC / 4 Ref Frames
Параметр CABAC формата : Да
Параметр RefFrames формата : 4 кадра
Идентификатор кодека : V_MPEG4/ISO/AVC
Продолжительность : 1 ч. 47 м.
Битрейт : 13,6 Мбит/сек
Ширина : 1456 пикселей
Высота : 1080 пикселей
Соотношение сторон : 4:3
Режим частоты кадров : Постоянный
Частота кадров : 23,976 (24000/1001) кадра/сек
Цветовое пространство : YUV
Субдискретизация насыщенности : 4:2:0
Битовая глубина : 8 бит
Тип развёртки : Прогрессивная
Бит/(Пиксели*Кадры) : 0.362
Размер потока : 10,3 Гбайт (87%)
Библиотека кодирования : x264 core 157 r2935 545de2f
Настройки программы : cabac=1 / ref=4 / deblock=1:-2:-2 / analyse=0x3:0x113 / me=umh / subme=11 / psy=1 / psy_rd=1.00:0.15 / mixed_ref=1 / me_range=32 / chroma_me=1 / trellis=2 / 8x8dct=1 / cqm=0 / deadzone=21,11 / fast_pskip=0 / chroma_qp_offset=-3 / threads=6 / lookahead_threads=1 / sliced_threads=0 / nr=0 / decimate=1 / interlaced=0 / bluray_compat=0 / constrained_intra=0 / bframes=7 / b_pyramid=2 / b_adapt=2 / b_bias=0 / direct=1 / weightb=1 / open_gop=0 / weightp=2 / keyint=230 / keyint_min=23 / scenecut=40 / intra_refresh=0 / rc_lookahead=40 / rc=crf / mbtree=1 / crf=17.6 / qcomp=0.60 / qpmin=0 / qpmax=69 / qpstep=4 / vbv_maxrate=50000 / vbv_bufsize=62500 / crf_max=0.0 / nal_hrd=none / filler=0 / ip_ratio=1.40 / aq=1:1.00
Язык : English
Default : Да
Forced : Нет

Аудио #1
Идентификатор : 2
Формат : AC-3
Формат/Информация : Audio Coding 3
Коммерческое название : Dolby Digital
Идентификатор кодека : A_AC3
Продолжительность : 1 ч. 47 м.
Вид битрейта : Постоянный
Битрейт : 192 Кбит/сек
Каналы : 2 канала
Channel layout : L R
Частота : 48,0 КГц
Частота кадров : 31,250 кадров/сек (1536 SPF)
Битовая глубина : 16 бит
Метод сжатия : С потерями
Размер потока : 148 Мбайт (1%)
Заголовок : MVO Film prestige
Язык : Russian
ServiceKind/String : Complete Main
Default : Да
Forced : Нет

Аудио #2
Идентификатор : 3
Формат : AC-3
Формат/Информация : Audio Coding 3
Коммерческое название : Dolby Digital
Идентификатор кодека : A_AC3
Продолжительность : 1 ч. 47 м.
Вид битрейта : Постоянный
Битрейт : 224 Кбит/сек
Каналы : 2 канала
Channel layout : L R
Частота : 48,0 КГц
Частота кадров : 31,250 кадров/сек (1536 SPF)
Битовая глубина : 16 бит
Метод сжатия : С потерями
Размер потока : 172 Мбайт (1%)
Заголовок : MVO Total DVD
Язык : Russian
ServiceKind/String : Complete Main
Default : Нет
Forced : Нет

Аудио #3
Идентификатор : 4
Формат : AC-3
Формат/Информация : Audio Coding 3
Коммерческое название : Dolby Digital
Идентификатор кодека : A_AC3
Продолжительность : 1 ч. 47 м.
Вид битрейта : Постоянный
Битрейт : 192 Кбит/сек
Каналы : 2 канала
Channel layout : L R
Частота : 48,0 КГц
Частота кадров : 31,250 кадров/сек (1536 SPF)
Битовая глубина : 16 бит
Метод сжатия : С потерями
Размер потока : 148 Мбайт (1%)
Заголовок : Пётр Карцев
Язык : Russian
ServiceKind/String : Complete Main
Default : Нет
Forced : Нет

Аудио #4
Идентификатор : 5
Формат : DTS
Формат/Информация : Digital Theater Systems
Идентификатор кодека : A_DTS
Продолжительность : 1 ч. 47 м.
Вид битрейта : Постоянный
Битрейт : 1509 Кбит/сек
Каналы : 2 канала
Channel layout : L R
Частота : 48,0 КГц
Частота кадров : 93,750 кадра/сек (512 SPF)
Битовая глубина : 24 бит
Метод сжатия : С потерями
Размер потока : 1,13 Гбайт (10%)
Заголовок : original
Язык : English
Default : Нет
Forced : Нет

Текст #1
Идентификатор : 6
Формат : UTF-8
Идентификатор кодека : S_TEXT/UTF8
Идентификатор кодека/Информация : UTF-8 Plain Text
Продолжительность : 1 ч. 47 м.
Битрейт : 129 бит/сек
ElementCount : 1439
Размер потока : 102 Кбайт (0%)
Заголовок : русские
Язык : Russian
Default : Нет
Forced : Нет

Текст #2
Идентификатор : 7
Формат : UTF-8
Идентификатор кодека : S_TEXT/UTF8
Идентификатор кодека/Информация : UTF-8 Plain Text
Продолжительность : 1 ч. 44 м.
Битрейт : 96 бит/сек
ElementCount : 1665
Размер потока : 74,2 Кбайт (0%)
Заголовок : английские
Язык : English
Default : Нет
Forced : Нет

Меню
00:00:00.000 : en:01. Main Titles
00:01:31.716 : en:02. Office Memorandum
00:07:15.560 : en:03. Fully Covered
00:12:36.547 : en:04. The Little Man
00:16:57.141 : en:05. Sour Taste
00:22:49.826 : en:06. Straight Down the Line
00:33:01.270 : en:07. Duplicate Application
00:37:19.695 : en:08. Accidentally on Purpose
00:42:26.669 : en:09. Desk Work
00:47:44.820 : en:10. Extra Careful
00:51:37.552 : en:11. The End of the Line
01:00:14.902 : en:12. Carrying the Ball
01:08:44.078 : en:13. A Troubling Hunch
01:13:52.052 : en:14. Awful Feeling
01:18:03.970 : en:15. Familiar Face
01:23:43.810 : en:16. Sticking Together
01:30:50.903 : en:17. Getting Off the Trolley
01:42:34.606 : en:18. All Washed Up
pb.wtf



Скачать Двойная страховка через торрент https://d.radikal.ru/d17/1902/35/1dbe37bdd212.jpg Скачать фильм Двойная страховка через торрент бесплантно в хорошем качестве О фильме: Страховой агент Уолтер Нефф отправляется продлить полис на машину некоему мистеру Дитрихсону. В его доме он встречается с миссис ... 10 10 1
Info! Золотая раздача, скачанное не засчитывается.
Торрент: Зарегистрирован [2019-02-20 11:04] · скачан: 7 раз
Статус: √ проверено
Размер: 11.86 GB
Как cкачать? Как скачать Двойная страховка через торрент | qTorrent

% Раздел Тема Автор DL S | L
Фильмы [HD 720p, 1080p] (Хороший звук DUB, MVO) [ 4.02 GB ] Двойная страховка / Double Indemnity [1944 фильм-нуар BDRip 720p by msltel] 2 x MVO AVO msltel Скачать
1 | 0

28-11-2019 20:33  

Отключить всю рекламу на сайте

    Дорогой пользователь! Огромная просьба, поблагодарите релизера, оцените раздачу и оставьте свои комментарий, если Вы скачали Двойная страховка через торрент бесплатно! Внесите свою лепту в развитие PiratBit!
    Комментировать посты могут только пользователи прошедшие не сложную регистрацию
    Показать сообщения:    

    Двойная страховка через торрент
    Скачать бесплатно Двойная страховка
    Двойная страховка скачать торрент
    Двойная страховка смотреть онлайн
    Cкачать фильм Двойная страховка бесплатно
    Двойная страховка скачать торрент в хорошем качестве
    Двойная страховка смотреть онлайн бесплатно в хорошем качестве


    Вы не можете начинать темы
    Вы не можете отвечать на сообщения
    Вы не можете редактировать свои сообщения
    Вы не можете удалять свои сообщения
    Вы не можете голосовать в опросах
    Вы не можете прикреплять файлы к сообщениям
    Вы можете скачивать файлы