Ссылка на приватное зеркало всего за 1$. Внимание количество ограничено!!!

OK

1+1

iTunes

мы

OK

1

WEB-DLRip

Джокер

Пифагор

Ведьмак / The Witcher сериал

iTunes

ПШазам

ОК

Оно 2

iTunes

30
pack

Вам бонус

ВАЖНО

!!Акция!!

Alien_RageХит недели

RePack

Resident Evil 21

ИГРА 18+

pack

RePack

jed

RePack

fifa19

RePack

Assassins Creed: Odyssey

RePack

NEED FOR SPEED™ PAYBACK

4 сезон

9 сезон

Бесстыжие 9 сезон

Все сериалы

все сериалы на PB.wtf

RePack

FAR CRY 5
  

Твоя свадьба / Neoui gyeolhonsik / Neo-eui kyeol-hoon-sik / On Your Wedding Day (Ли Сок-кын) [2018, мелодрама, комедия, HDRip] MVO ["Синема УС"] pb.wtf

Твоя свадьба через торрент pb.wtf

Размер: 5.57 GB | Добавлен: 11 мес. назад | Торрент скачан:26 раз
Скачать  

20-02-2019 17:11 Твоя свадьба Скачать торрент  

Твоя свадьба / Neoui gyeolhonsik / Neo-eui kyeol-hoon-sik / On Your Wedding Day Год выпуска: 2018
Страна: Южная Корея
Жанр: мелодрама, комедия
Продолжительность: 01:51:30
Перевод: Любительский (многоголосый) | "Синема УС"
Субтитры: отсутствуют

Режиссер: Ли Сок-кын

rating

В ролях:

Ким Ён-гван, Пак По-ён, Кан Ги-ён, Ко Гю-пхиль, Чан Сон-бом, Чха Ёп, Со Ын-су, Пэ Хэ-сон, Чон Бэ-су, Со Юн-а

Описание:

Сын-хи и У-ён первый раз встретились ещё в старшей школе. Девушка очень нравилась У-ёну, но по семейным обстоятельствам ей пришлось уехать в другой город. Их дороги разошлись, но ещё несколько раз пересекались, и вот теперь У-ён получает приглашение на свадьбу любви всей своей жизни.

Качество: BDRip 720p
Формат: MKV

Видео: h.264,6 708 Кбит/с, 1280x720
Аудио#1: Русский (AC3, 2 ch, 448 Кбит/с)
скриншот  скриншот  скриншот  

Общее
Уникальный идентификатор : 181557208990257379340076670095418221276 (0x8896A583BC3B2987842ECD1462FC62DC)
Полное имя : D:\On.Your.Wedding.Day.2018.P.BDRip.72Op.mkv
Формат : Matroska
Версия формата : Version 2
Размер файла : 5,57 Гбайт
Продолжительность : 1 ч. 51 м.
Режим общего битрейта : Переменный
Общий поток : 7158 Кбит/сек
Дата кодирования : UTC 2019-02-20 08:40:56
Программа кодирования : mkvmerge v8.3.0 ('Over the Horizon') 64bit
Библиотека кодирования : libebml v1.3.1 + libmatroska v1.4.2

Видео
Идентификатор : 1
Формат : AVC
Формат/Информация : Advanced Video Codec
Профиль формата : High@L4.1
Параметр CABAC формата : Да
Параметр RefFrames формата : 4 кадра
Идентификатор кодека : V_MPEG4/ISO/AVC
Продолжительность : 1 ч. 51 м.
Вид битрейта : Переменный
Битрейт : 6708 Кбит/сек
Максимальный битрейт : 7500 Кбит/сек
Ширина : 1280 пикселей
Высота : 720 пикселей
Соотношение сторон : 16:9
Режим частоты кадров : Постоянный
Частота кадров : 23,976 (24000/1001) кадра/сек
Стандарт вещания : Component
Цветовое пространство : YUV
Субдискретизация насыщенности : 4:2:0
Битовая глубина : 8 бит
Тип развёртки : Прогрессивная
Бит/(Пиксели*Кадры) : 0.297
Размер потока : 5,11 Гбайт (92%)
Default : Да
Forced : Нет
Цветовой диапазон : Limited
Основные цвета : BT.709
Характеристики трансфера : BT.709
Коэффициенты матрицы : BT.709

Аудио
Идентификатор : 2
Формат : AC-3
Формат/Информация : Audio Coding 3
Расширение режима : CM (complete main)
Параметр Endianness формата : Big
Идентификатор кодека : A_AC3
Продолжительность : 1 ч. 51 м.
Вид битрейта : Постоянный
Битрейт : 448 Кбит/сек
Каналы : 2 канала
Расположение каналов : Front: L R
Частота : 48,0 КГц
Частота кадров : 31,250 кадров/сек (1536 spf)
Метод сжатия : С потерями
Размер потока : 357 Мбайт (6%)
Default : Да
Forced : Нет

pb.wtf



Скачать Твоя свадьба через торрент https://b.radikal.ru/b15/1902/45/2b5e8527b33a.jpg Скачать фильм Твоя свадьба через торрент бесплантно в хорошем качестве Описание: Сын-хи и У-ён первый раз встретились ещё в старшей школе. Девушка очень нравилась У-ёну, но по семейным обстоятельствам ей ... 10 10 2
Торрент: Зарегистрирован [2019-02-20 17:11] · скачан: 26 раз
Статус: # сомнительно
Размер: 5.57 GB
Как cкачать? Как скачать Твоя свадьба через торрент | qTorrent

% Раздел Тема Автор DL S | L
T Фильмы (мультфильмы) cо спонсором показа (Новинки AVI/MKV) [ 1.46 GB ] Твоя свадьба / Neoui gyeolhonsik / Neo-eui kyeol-hoon-sik / On Your Wedding Day [2018 HDRip] MVO ["Синема УС"] bober100 Скачать
1 | 0

28-11-2019 20:33  

Отключить всю рекламу на сайте

    Дорогой пользователь! Огромная просьба, поблагодарите релизера, оцените раздачу и оставьте свои комментарий, если Вы скачали Твоя свадьба через торрент бесплатно! Внесите свою лепту в развитие PiratBit!
    Комментировать посты могут только пользователи прошедшие не сложную регистрацию
    Показать сообщения:    

    Твоя свадьба через торрент
    Скачать бесплатно Твоя свадьба
    Твоя свадьба скачать торрент
    Твоя свадьба смотреть онлайн
    Cкачать фильм Твоя свадьба бесплатно
    Твоя свадьба скачать торрент в хорошем качестве
    Твоя свадьба смотреть онлайн бесплатно в хорошем качестве


    Вы не можете начинать темы
    Вы не можете отвечать на сообщения
    Вы не можете редактировать свои сообщения
    Вы не можете удалять свои сообщения
    Вы не можете голосовать в опросах
    Вы не можете прикреплять файлы к сообщениям
    Вы можете скачивать файлы