Ссылка на приватное зеркало всего за 1$. Внимание количество ограничено!!!

OK

1+1

iTunes

мы

OK

1

WEB-DLRip

Джокер

Пифагор

Ведьмак / The Witcher сериал

iTunes

ПШазам

ОК

Оно 2

iTunes

30
pack

Вам бонус

ВАЖНО

!!Акция!!

Alien_RageХит недели

RePack

Resident Evil 21

ИГРА 18+

pack

RePack

jed

RePack

fifa19

RePack

Assassins Creed: Odyssey

RePack

NEED FOR SPEED™ PAYBACK

4 сезон

9 сезон

Бесстыжие 9 сезон

Все сериалы

все сериалы на PB.wtf

RePack

FAR CRY 5
  

Крид 2 / Creed II (Стивен Кейпл мл.) [2018, драма, спорт, BDRip 720p] DUB [Line] pb.wtf

Крид 2 через торрент pb.wtf

Размер: 6.58 GB | Добавлен: 11 мес. назад | Торрент скачан:146 раз
Скачать  

20-02-2019 17:45 Крид 2 Скачать торрент  

Крид 2 / Creed II Год выпуска: 2018
Страна: США
Жанр: драма, спорт
Продолжительность: 02:10:45
Перевод: Дублированный | Line
Субтитры: отсутствуют

Режиссер: Стивен Кейпл мл.

rating

В ролях:

Майкл Б. Джордан, Сильвестр Сталлоне, Тесса Томпсон, Филисия Рашад, Дольф Лундгрен, Флориан Мунтяну, Расселл Хорнсби, Вуд Харрис, Майло Вентимилья

Описание:

Возвращение на ринг потомственного боксера Адониса Крида, которого тренирует старый друг его отца и легендарный чемпион Рокки. Два поколения бойцов снова разбираются в своих жизненных драмах с помощью бокса.

Качество: BDRip 720p
Формат: MKV

Видео: h.264,6 756kb/s, 1280x536
Аудио#1: Русский (AC3, 2 ch, 448 Кбит/с)
скриншот  скриншот  скриншот  

Общее
Уникальный идентификатор : 190698590205197849526897008912632776581 (0x8F773667E5F65C5684EC7FD9EAEE0785)
Полное имя : D:\Creed.II.2018.D.BDRip.72Op.mkv
Формат : Matroska
Версия формата : Version 2
Размер файла : 6,58 Гбайт
Продолжительность : 2 ч. 10 м.
Режим общего битрейта : Переменный
Общий поток : 7206 Кбит/сек
Дата кодирования : UTC 2019-02-20 04:04:45
Программа кодирования : mkvmerge v8.3.0 ('Over the Horizon') 64bit
Библиотека кодирования : libebml v1.3.1 + libmatroska v1.4.2

Видео
Идентификатор : 1
Формат : AVC
Формат/Информация : Advanced Video Codec
Профиль формата : High@L4.1
Параметр CABAC формата : Да
Параметр RefFrames формата : 4 кадра
Идентификатор кодека : V_MPEG4/ISO/AVC
Продолжительность : 2 ч. 10 м.
Вид битрейта : Переменный
Битрейт : 6756 Кбит/сек
Максимальный битрейт : 7500 Кбит/сек
Ширина : 1280 пикселей
Высота : 536 пикселей
Соотношение сторон : 2,40:1
Режим частоты кадров : Постоянный
Частота кадров : 23,976 (24000/1001) кадра/сек
Стандарт вещания : Component
Цветовое пространство : YUV
Субдискретизация насыщенности : 4:2:0
Битовая глубина : 8 бит
Тип развёртки : Прогрессивная
Бит/(Пиксели*Кадры) : 0.402
Размер потока : 6,04 Гбайт (92%)
Default : Да
Forced : Нет
Цветовой диапазон : Limited
Основные цвета : BT.709
Характеристики трансфера : BT.709
Коэффициенты матрицы : BT.709

Аудио
Идентификатор : 2
Формат : AC-3
Формат/Информация : Audio Coding 3
Расширение режима : CM (complete main)
Параметр Endianness формата : Big
Идентификатор кодека : A_AC3
Продолжительность : 2 ч. 10 м.
Вид битрейта : Постоянный
Битрейт : 448 Кбит/сек
Каналы : 2 канала
Расположение каналов : Front: L R
Частота : 48,0 КГц
Частота кадров : 31,250 кадров/сек (1536 spf)
Метод сжатия : С потерями
Размер потока : 419 Мбайт (6%)
Default : Да
Forced : Нет

pb.wtf



Скачать Крид 2 через торрент https://b.radikal.ru/b18/1812/6c/879675d0cae6.jpg Скачать фильм Крид 2 через торрент бесплантно в хорошем качестве Описание: Возвращение на ринг потомственного боксера Адониса Крида, которого тренирует старый друг его отца и легендарный чемпион Рокки. ... 7.5 10 4
Торрент: Зарегистрирован [2019-02-20 17:45] · скачан: 146 раз
Статус: # сомнительно
Размер: 6.58 GB
Как cкачать? Как скачать Крид 2 через торрент | qTorrent

% Раздел Тема Автор DL S | L
Фильмы (HD 720p, 1080p) (48-60 fps) [ 17.46 GB ] Крид 2 / Creed II [2018 BDRip 1080p 60 fps] [] sheker187 Скачать
1 | 0
Фильмы 2018 [DVDrip, WEB-DLRip, HDrip] (DUB, MVO) [ 2.18 GB ] Крид 2 / Creed II [2018 BDRip] - [] Twi7ter Скачать
1 | 0
Фильмы 2018 [DVDrip, WEB-DLRip, HDrip] (DUB, MVO) [ 1.46 GB ] Крид 2 / Creed II [2018 BDRip] DUB [] Skandar2019 Скачать
3 | 0
Ultra HD (UHD: 2K, 4K, 8K) — видео сверхвысокой чёткости [ 53.03 GB ] Крид 2 / Creed II [2018 UHD Blu-ray 2160p] DUB [] [Dolby Vision] sheker187 Скачать
1 | 0
Фильмы 2018 [DVDrip, WEB-DLRip, HDrip] (DUB, MVO) [ 1.46 GB ] Крид 2 / Creed II [2018 BDRip] - [] Twi7ter Скачать
2 | 0
# Фильмы (мультфильмы) cо спонсором показа (Новинки AVI/MKV) [ 11.82 GB ] Крид 2 / Creed II [2018 BDRip 1080p] DUB [Line] bober100 Скачать
1 | 0
Ultra HD (UHD: 2K, 4K, 8K) — видео сверхвысокой чёткости [ 42.57 GB ] Крид 2 / Creed II [2018 UHD BDRemux 2160p] DUB [] + MVO [HDRezka Studio] sheker187 Скачать
2 | 0

28-11-2019 20:33  

Отключить всю рекламу на сайте

    Дорогой пользователь! Огромная просьба, поблагодарите релизера, оцените раздачу и оставьте свои комментарий, если Вы скачали Крид 2 через торрент бесплатно! Внесите свою лепту в развитие PiratBit!
    Комментировать посты могут только пользователи прошедшие не сложную регистрацию
    Показать сообщения:    

    Крид 2 через торрент
    Скачать бесплатно Крид 2
    Крид 2 скачать торрент
    Крид 2 смотреть онлайн
    Cкачать фильм Крид 2 бесплатно
    Крид 2 скачать торрент в хорошем качестве
    Крид 2 смотреть онлайн бесплатно в хорошем качестве


    Вы не можете начинать темы
    Вы не можете отвечать на сообщения
    Вы не можете редактировать свои сообщения
    Вы не можете удалять свои сообщения
    Вы не можете голосовать в опросах
    Вы не можете прикреплять файлы к сообщениям
    Вы можете скачивать файлы