Ссылка на приватное зеркало всего за 1$. Внимание количество ограничено!!!

OK

1+1

iTunes

мы

OK

1

WEB-DLRip

Джокер

Пифагор

Ведьмак / The Witcher сериал

iTunes

ПШазам

ОК

Оно 2

iTunes

30
pack

Вам бонус

ВАЖНО

!!Акция!!

Alien_RageХит недели

RePack

Resident Evil 21

ИГРА 18+

pack

RePack

jed

RePack

fifa19

RePack

Assassins Creed: Odyssey

RePack

NEED FOR SPEED™ PAYBACK

4 сезон

9 сезон

Бесстыжие 9 сезон

Все сериалы

все сериалы на PB.wtf

RePack

FAR CRY 5
  

Пила-Салат / Slaw (Мэтт Грин) [2017, Ужасы, WEB-DL 720p] MVO ["Синема УС"] pb.wtf

Пила-Салат через торрент pb.wtf

Размер: 3.34 GB | Добавлен: 11 мес. назад | Торрент скачан:26 раз
Скачать  

20-02-2019 18:36 Пила-Салат Скачать торрент  

Пила-Салат / Slaw Год выпуска: 2017
Страна: США
Жанр: Ужасы
Продолжительность: 01:23:43
Перевод: Любительский (многоголосый) | "Синема УС"
Субтитры: отсутствуют

Режиссер: Мэтт Грин

rating

В ролях:

Джон Кап, Кевин Нэш, Грегори Алан Уильямс, Бернадетта Перес, Аарон Билнер, Дрю Хэнкинсон, Майк Сандерс, Эскаланте Ланди, Чарльз Бельфлауэр, Леа Монет Джонсон

Описание:

Два брата-гурмана похищают и пытают тех, кто портит им гастрономический опыт.

Качество: WEB-DL 720p
Формат: MKV

Видео: h.264,5 325 kb/s, 1280x688
Аудио#1: Русский, (AC3, 2 ch, 384 Кбит/с)
скриншот  скриншот  скриншот  

Общее
Уникальный идентификатор : 171571814406990093511332240927303622861 (0x8113878D2D1871B8A36ADA3C028360CD)
Полное имя : D:\Slaw.2017.P.WEB-DL.72Op_KOSHARA.mkv
Формат : Matroska
Версия формата : Version 2
Размер файла : 3,34 Гбайт
Продолжительность : 1 ч. 23 м.
Режим общего битрейта : Переменный
Общий поток : 5711 Кбит/сек
Дата кодирования : UTC 2019-02-20 13:53:49
Программа кодирования : mkvmerge v8.3.0 ('Over the Horizon') 64bit
Библиотека кодирования : libebml v1.3.1 + libmatroska v1.4.2

Видео
Идентификатор : 1
Формат : AVC
Формат/Информация : Advanced Video Codec
Профиль формата : High@L4.1
Параметр CABAC формата : Да
Параметр RefFrames формата : 4 кадра
Идентификатор кодека : V_MPEG4/ISO/AVC
Продолжительность : 1 ч. 23 м.
Вид битрейта : Переменный
Битрейт : 5325 Кбит/сек
Максимальный битрейт : 6000 Кбит/сек
Ширина : 1280 пикселей
Высота : 688 пикселей
Соотношение сторон : 1,85:1
Режим частоты кадров : Постоянный
Частота кадров : 23,976 (24000/1001) кадра/сек
Стандарт вещания : Component
Цветовое пространство : YUV
Субдискретизация насыщенности : 4:2:0
Битовая глубина : 8 бит
Тип развёртки : Прогрессивная
Бит/(Пиксели*Кадры) : 0.247
Размер потока : 3,05 Гбайт (91%)
Default : Да
Forced : Нет
Цветовой диапазон : Limited
Основные цвета : BT.709
Характеристики трансфера : BT.709
Коэффициенты матрицы : BT.709

Аудио
Идентификатор : 2
Формат : AC-3
Формат/Информация : Audio Coding 3
Расширение режима : CM (complete main)
Параметр Endianness формата : Big
Идентификатор кодека : A_AC3
Продолжительность : 1 ч. 23 м.
Вид битрейта : Постоянный
Битрейт : 384 Кбит/сек
Каналы : 2 канала
Расположение каналов : Front: L R
Частота : 48,0 КГц
Частота кадров : 31,250 кадров/сек (1536 spf)
Метод сжатия : С потерями
Размер потока : 230 Мбайт (7%)
Default : Да
Forced : Нет

pb.wtf



Скачать Пила-Салат через торрент https://b.radikal.ru/b10/1902/ce/cdf472552e5d.jpg Скачать фильм Пила-Салат через торрент бесплантно в хорошем качестве Описание: Два брата-гурмана похищают и пытают тех, кто портит им гастрономический ... 10 10 3
Торрент: Зарегистрирован [2019-02-20 18:36] · скачан: 26 раз
Статус: T временная
Размер: 3.34 GB
Как cкачать? Как скачать Пила-Салат через торрент | qTorrent

% Раздел Тема Автор DL S | L
T Фильмы (мультфильмы) cо спонсором показа (Новинки AVI/MKV) [ 1.37 GB ] Пила-Салат / Slaw [2017 WEB-DLRip] MVO ["Синема УС"] bober100 Скачать
1 | 0

28-11-2019 20:33  

Отключить всю рекламу на сайте

    Дорогой пользователь! Огромная просьба, поблагодарите релизера, оцените раздачу и оставьте свои комментарий, если Вы скачали Пила-Салат через торрент бесплатно! Внесите свою лепту в развитие PiratBit!
    Комментировать посты могут только пользователи прошедшие не сложную регистрацию
    Показать сообщения:    

    Пила-Салат через торрент
    Скачать бесплатно Пила-Салат
    Пила-Салат скачать торрент
    Пила-Салат смотреть онлайн
    Cкачать фильм Пила-Салат бесплатно
    Пила-Салат скачать торрент в хорошем качестве
    Пила-Салат смотреть онлайн бесплатно в хорошем качестве


    Вы не можете начинать темы
    Вы не можете отвечать на сообщения
    Вы не можете редактировать свои сообщения
    Вы не можете удалять свои сообщения
    Вы не можете голосовать в опросах
    Вы не можете прикреплять файлы к сообщениям
    Вы можете скачивать файлы