новый адрес
Ссылка на приватное зеркало всего за 1$. Внимание количество ограничено!!!

iTunes

1+1

iTunes

мы

WEB-DL

1

iTunes

Чернобыль

iTunes

Ральф против интернета

Лицензия

ПШазам

Лицензия

Оно 2

Лицензия

30
pack

Вам бонус

ВАЖНО

!!Акция!!

Alien_RageХит недели

RePack

Resident Evil 21

ИГРА 18+

pack

RePack

jed

!!Акция!!

Alien_Rage

RePack

fifa19

RePack

Assassins Creed: Odyssey

RePack

NEED FOR SPEED™ PAYBACK

3 сезон

9 сезон

Бесстыжие 9 сезон

Все сериалы

все сериалы на PB.wtf

RePack

FAR CRY 5
Ребята, катастрофически не хватает 1900р. для оплаты серверов за Октябрь (всвязи с блокировками трафик упал в 3 раза), 1-2р., выручайте.
  

Один король — одна Франция / Un peuple et son roi (Пьер Шоллер) [2018 г., драма, HDRip, Дубляж "iTunes"] pb.wtf

Один король — одна Франция через торрент pb.wtf

Раздают: 2 [ 0 KB/s ]
Размер: 767 MB | Добавлен: 9 мес. назад | Торрент скачан:54 раза
Скачать  

20-02-2019 18:47 Один король — одна Франция Скачать торрент  

Один король — одна Франция / Un peuple et son roi
Год выпуска: 2018
Страна: Франция, Бельгия / Archipel 35, StudioCanal, France 3 Cinéma
Жанр: драма
Продолжительность: 02:01:56
Перевод: Дубляж (iTunes)

Режиссер: Пьер Шоллер

rating

В ролях: Гаспар Ульель, Адель Энель, Оливье Гурме, Луи Гаррель, Изиа Ижлен, Ноэми Львовски, Селин Саллетт, Дени Лаван, Жоан Либеро, Анджей Хыра

Описание: Масштабная историческая картина о Великой французской революции. В центре событий молодая пара влюбленных — Базиль и Франсуаза, судьбы которых буквально «намотало» на маховик истории.

Качество: HDRip
Формат: AVI
Видео кодек: XviD
Аудио кодек: MP3
Видео: 640x344 (1.86:1), 23.976 fps, XviD build 50 ~742 kbps avg, 0.14 bit/pixel
Аудио: 48 kHz, MPEG Layer 3, 2 ch, ~128.00 kbps avg
скриншот   скриншот   скриншот   скриншот  

Общее
Полное имя : F:\ФИЛЬМЫ\Один король — одна Франция.2018.D.HDRip.avi
Формат : AVI
Формат/Информация : Audio Video Interleave
Размер файла : 767 Мбайт
Продолжительность : 2 ч. 1 м.
Общий поток : 880 Кбит/сек
Программа кодирования : VirtualDubMod 1.5.10.3 | www.virtualdub-fr.org || (build 2550/release)
Библиотека кодирования : VirtualDubMod build 2550/release

Видео
Идентификатор : 0
Формат : MPEG-4 Visual
Профиль формата : Advanced Simple@L5
Настройки формата : BVOP1
Параметр BVOP формата : 1
Параметр QPel формата : Нет
Параметр GMC формата : Без точки перехода
Параметр матрицы формата : Default (MPEG)
Идентификатор кодека : XVID
Идентификатор кодека/Подсказка : XviD
Продолжительность : 2 ч. 1 м.
Битрейт : 743 Кбит/сек
Ширина : 640 пикселей
Высота : 344 пикселя
Соотношение сторон : 1,85:1
Частота кадров : 23,976 (24000/1001) кадра/сек
Цветовое пространство : YUV
Субдискретизация насыщенности : 4:2:0
Битовая глубина : 8 бит
Тип развёртки : Прогрессивная
Метод сжатия : С потерями
Бит/(Пиксели*Кадры) : 0.141
Размер потока : 648 Мбайт (84%)
Библиотека кодирования : XviD 1.2.1 (UTC 2008-12-04)

Аудио
Идентификатор : 1
Формат : MPEG Audio
Версия формата : Version 1
Профиль формата : Layer 3
Настройки формата : Joint stereo / MS Stereo
Идентификатор кодека : 55
Идентификатор кодека/Подсказка : MP3
Продолжительность : 2 ч. 1 м.
Вид битрейта : Постоянный
Битрейт : 128 Кбит/сек
Каналы : 2 канала
Частота : 48,0 КГц
Частота кадров : 41,667 кадра/сек (1152 SPF)
Метод сжатия : С потерями
Размер потока : 112 Мбайт (15%)
Выравнивание : Соединение по промежуткам
Продолжительность промежутка : 42 мс. (1,00 видеокадр)
Время предзагрузки промежутка : 504 мс.
Библиотека кодирования : LAME3.99r
Настройки программы : -m j -V 4 -q 2 -lowpass 17 -b 128

pb.wtf



Скачать Один король — одна Франция через торрент http://pic1.kartinco.top/images/12/3vfce.jpg Скачать фильм Один король — одна Франция через торрент бесплантно в хорошем качестве Описание: Масштабная историческая картина о Великой французской революции. В центре событий молодая пара влюбленных — Базиль и Франсуаза, ... 5 10 1
Торрент: Зарегистрирован [2019-02-20 18:47] · скачан: 54 раз
Статус: √ проверено
Размер: 767 MB
Как cкачать? Как скачать Один король — одна Франция через торрент | qTorrent

% Раздел Тема Автор DL S | L
Фильмы 2018 [DVDrip, WEB-DLRip, HDrip] (DUB, MVO) [ 2.13 GB ] Один король — одна / Un peuple et son roi [2018 BDRip] bober100 Скачать
2 | 0
Фильмы [HD 720p, 1080p] (Хороший звук DUB, MVO) [ 13.1 GB ] Один король — одна / Un peuple et son roi [2018 BDRip 1080p] bober100 Скачать
2 | 0
Фильмы (Blu-ray, BD-Remux, HDDVD) [ 33.66 GB ] Один король — одна / Un peuple et son roi [2018 BD Remux 1080p] bober100 Скачать
1 | 0
Фильмы 2018 [DVDrip, WEB-DLRip, HDrip] (DUB, MVO) [ 1.46 GB ] Один король — одна / Un peuple et son roi [2018 BDRip] bober100 Скачать
3 | 0
Фильмы (WEB-DL 720p, 1080p) [ 3.76 GB ] Один король — одна / Un peuple et son roi [2018 WEB-DL 720p] bober100 Скачать
1 | 0

28-11-2019 20:33  

Отключить всю рекламу на сайте

    Дорогой пользователь! Огромная просьба, поблагодарите релизера, оцените раздачу и оставьте свои комментарий, если Вы скачали Один король — одна Франция через торрент бесплатно! Внесите свою лепту в развитие PiratBit!
    Комментировать посты могут только пользователи прошедшие не сложную регистрацию
    Показать сообщения:    

    Один король — одна Франция через торрент
    Скачать бесплатно Один король — одна Франция
    Один король — одна Франция скачать торрент
    Один король — одна Франция смотреть онлайн
    Cкачать фильм Один король — одна Франция бесплатно
    Один король — одна Франция скачать торрент в хорошем качестве
    Один король — одна Франция смотреть онлайн бесплатно в хорошем качестве


    Вы не можете начинать темы
    Вы не можете отвечать на сообщения
    Вы не можете редактировать свои сообщения
    Вы не можете удалять свои сообщения
    Вы не можете голосовать в опросах
    Вы не можете прикреплять файлы к сообщениям
    Вы можете скачивать файлы