Ссылка на приватное зеркало нашего сайта всего за 1$. Внимание количество ограничено!!!

2 сезон

iTunes

1 сезон

1

2 сезон

2 сезон

iTunes

1 сезон

RePack

30

Новинка

ВАЖНО

ИГРА 18+

pack

RePack

MK11
pack

Забери бонус

RePack

jed

!!Акция!!

Alien_Rage

RePack

fifa19

RePack

Assassins Creed: Odyssey

RePack

NEED FOR SPEED™ PAYBACK

4 сезон

9 сезон

Бесстыжие 9 сезон

Все сериалы

все сериалы на PB.wtf

RePack

FAR CRY 5
  

Город и город / The City and the City / Сезон: 1 / Серии: 1-4 из 4 (Том Шенклэнд) [2018, фантастика, драма, криминал, детектив, WEBRip] MVO [Good People] pb.wtf

Город и город через торрент pb.wtf

Размер: 2.74 GB | Добавлен: 1 год 9 мес. назад | Торрент скачан:39 раз
Скачать  

21-02-2019 01:35 Город и город Скачать торрент  

Город и город | The City and the City Год выпуска: 2018
Страна: Великобритания
Жанр: фантастика, драма, криминал, детектив
Продолжительность: ~ 00:55:00
Перевод: Профессиональный (многоголосый закадровый) | Good People
Субтитры: отсутствуют

Режиссёр: Том Шенклэнд

В ролях:

Кристиан Камарго, Рон Кук, Мандип Диллон, Роберт Фёрт, Дэвид Моррисси, Дэннис О’Доннелл, Грэм Пэррингтон, Лара Пулвер, Мария Шрадер, Паприка Стеэн и др.

Описание:

Сюжет строится вокруг расследования обычного с виду преступления, когда на улицах Бещеля, окраинного городка в Европе, был найден труп молодой женщины. Инспектор Борл воспринимает это дела как обычную будничную рутину, но с началом расследования инспектору приходится переместиться в соседний город, а это оказывается настоящим испытанием…



Качество: WEBRip
Формат: AVI

Видео: XviD, ~ 1400 kbps, 720x304 (2,35:1), 25,000 fps
Аудио 1: MP3, 48,0 КГц, 2 ch, 128 kbps - Rus
Аудио 2: MP3, 48,0 КГц, 2 ch, 128 kbps - Eng


Реклама: Присутствует звуковая (два раза в начале и конце по 10 сек.)
Общее
Полное имя                               : G:\Загрузки\The.City.And.The.City.S01E01.WEBRip.Rus.Eng.GoodPeople.avi
Формат                                   : AVI
Формат/Информация                        : Audio Video Interleave
Размер файла                             : 701 Мбайт
Продолжительность                        : 57 м. 43 с.
Общий поток                              : 1697 Кбит/сек
Программа кодирования                    : VirtualDubMod 1.5.10.3 | www.virtualdub-fr.org || (build 2550/release)
Библиотека кодирования                   : VirtualDubMod build 2550/release

Видео
Идентификатор                            : 0
Формат                                   : MPEG-4 Visual
Профиль формата                          : Advanced Simple@L5
Настройки формата                        : BVOP1 / Custom Matrix
Параметр BVOP формата                    : 1
Параметр QPel формата                    : Нет
Параметр GMC формата                     : Без точки перехода
Параметр матрицы формата                 : Выборочная
Идентификатор кодека                     : XVID
Идентификатор кодека/Подсказка           : XviD
Продолжительность                        : 57 м. 43 с.
Битрейт                                  : 1427 Кбит/сек
Ширина                                   : 720 пикселей
Высота                                   : 304 пикселя
Соотношение сторон                       : 2,35:1
Частота кадров                           : 25,000 кадров/сек
Цветовое пространство                    : YUV
Субдискретизация насыщенности            : 4:2:0
Битовая глубина                          : 8 бит
Тип развёртки                            : Прогрессивная
Метод сжатия                             : С потерями
Бит/(Пиксели*Кадры)                      : 0.261
Размер потока                            : 589 Мбайт (84%)
Библиотека кодирования                   : XviD 73

Аудио #1
Идентификатор                            : 1
Формат                                   : MPEG Audio
Версия формата                           : Version 1
Профиль формата                          : Layer 3
Настройки формата                        : Joint stereo / MS Stereo
Идентификатор кодека                     : 55
Идентификатор кодека/Подсказка           : MP3
Продолжительность                        : 57 м. 43 с.
Вид битрейта                             : Постоянный
Битрейт                                  : 128 Кбит/сек
Каналы                                   : 2 канала
Частота                                  : 48,0 КГц
Метод сжатия                             : С потерями
Размер потока                            : 52,8 Мбайт (8%)
Выравнивание                             : Соединение по промежуткам
Продолжительность промежутка             : 40  мс. (1,00 видеокадр)
Время предзагрузки промежутка            : 504  мс.

Аудио #2
Идентификатор                            : 2
Формат                                   : MPEG Audio
Версия формата                           : Version 1
Профиль формата                          : Layer 3
Настройки формата                        : Joint stereo / MS Stereo
Идентификатор кодека                     : 55
Идентификатор кодека/Подсказка           : MP3
Продолжительность                        : 57 м. 43 с.
Вид битрейта                             : Постоянный
Битрейт                                  : 128 Кбит/сек
Каналы                                   : 2 канала
Частота                                  : 48,0 КГц
Метод сжатия                             : С потерями
Размер потока                            : 52,8 Мбайт (8%)
Выравнивание                             : Соединение по промежуткам
Продолжительность промежутка             : 40  мс. (1,00 видеокадр)
Время предзагрузки промежутка            : 504  мс.
скриншот  скриншот  скриншот  скриншот  
pb.wtf



Скачать Город и город через торрент http://i104.fastpic.ru/big/2018/0411/d3/fee2e76f14fd49b057493c44faf2d2d3.jpg Скачать фильм Город и город через торрент бесплантно в хорошем качестве Описание: Сюжет строится вокруг расследования обычного с виду преступления, когда на улицах Бещеля, окраинного городка в Европе, был найден ... 10 10 3
Торрент: Зарегистрирован [2019-02-21 01:35] · скачан: 39 раз
Статус: √ проверено
Размер: 2.74 GB
Как cкачать? Как скачать Город и город через торрент | qTorrent

% Раздел Тема Автор DL S | L
Зарубежные сериалы [ 3.6 GB ] Город и город / The City and the City / Сезон: 1 / Серии: 1-4 из 4 [2018 WEBRip] [MVO] killermax2013 Скачать
1 | 0
Зарубежные сериалы [ 7.09 GB ] Город и город / The City and the City / Сезон: 1 / Серии: 1-4 из 4 [2018 WEBRip 1080p] MVO [TVShows] bober100 Скачать
1 | 0
Зарубежные сериалы [ 2.74 GB ] Город и город / The City and the City / Сезон: 1 / Серии: 1-4 из 4 [2018 WEBRip] MVO [Profix Media] bober100 Скачать
1 | 0

28-11-2019 20:33  

Отключить всю рекламу на сайте

    Дорогой пользователь! Огромная просьба, поблагодарите релизера, оцените раздачу и оставьте свои комментарий, если Вы скачали Город и город через торрент бесплатно! Внесите свою лепту в развитие PiratBit!
    Комментировать посты могут только пользователи прошедшие не сложную регистрацию
    Показать сообщения:    

    Город и город через торрент
    Скачать бесплатно Город и город
    Город и город скачать торрент
    Город и город смотреть онлайн
    Cкачать фильм Город и город бесплатно
    Город и город скачать торрент в хорошем качестве
    Город и город смотреть онлайн бесплатно в хорошем качестве


    Вы не можете начинать темы
    Вы не можете отвечать на сообщения
    Вы не можете редактировать свои сообщения
    Вы не можете удалять свои сообщения
    Вы не можете голосовать в опросах
    Вы не можете прикреплять файлы к сообщениям
    Вы можете скачивать файлы