Всегда рабочее зеркало без VPN и Proxy просто перед .vidak.icu напиши любое слово или цифру, Пример http://784t.vidak.icu

MVO

MVO

1 сезон

1

1 сезон

iTunes

1 сезон

13

1 сезон

Deluxe

pack

Рекомендуем

Repack

30

ВАЖНО

RePack

MK11

RePack

jed

RePack

fifa19

RePack

RDR2

RePack

NEED FOR SPEED™ PAYBACK

Кинопоиск HD

6 сезон

 Острые козырьки 6 сезон

Все сериалы

все сериалы на PB.wtf

RePack

FAR CRY 5
  
Magnet ссылка

Начало / Inception (Кристофер Нолан) [2010, фантастика, боевик, триллер, UHD BDRemux 2160p] DUB + 2xDVO + 3xAVO pb.wtf

Начало через торрент pb.wtf

Размер: 89.07 GB | Добавлен: 3 года 4 мес. назад | Торрент скачан:87 раз
Смотреть онлайн Начало | Скачать    Ребята, помогите собрать деньги на оплату серверов!!!

21-02-2019 01:59 Начало Скачать торрент  

Начало / Inception«Твой разум - место преступления»
Год выпуска: 2010
Страна: США, Великобритания
Жанр: фантастика, боевик, триллер, драма, детектив
Продолжительность: 02:28:07
Перевод: Дублированный, профессиональный двухгоголосый, авторский
Субтитры: Русские (forced, full, Е. Воронин - forced, full, SDH), английские (full, SDH)
Режиссер: Кристофер Нолан
В ролях:

Леонардо ДиКаприо (Cobb), Джозеф Гордон-Левитт (Arthur), Эллен Пейдж (Ariadne), Том Харди (Eames), Кен Ватанабе (Saito), Дилип Рао (Yusuf), Киллиан Мёрфи (Robert Fischer), Том Беренджер (Browning), Марион Котийяр (Mal), Пит Постлетуэйт (Maurice Fischer), Майкл Кейн (Miles), Лукас Хаас (Nash)
Описание:
Кобб - талантливый вор, лучший из лучших в опасном искусстве извлечения: он крадет ценные секреты из глубин подсознания во время сна, когда человеческий разум наиболее уязвим. Редкие способности Кобба сделали его ценным игроком в привычном к предательству мире промышленного шпионажа, но они же превратили его в извечного беглеца и лишили всего, что он когда-либо любил.
Рейтинг:

MPAA: PG-13 - Детям до 13 лет просмотр не желателен
Качество: UHD BDRemux 2160p
Формат: MKV
Видео: MPEG-H HEVC Video / 59231 kbps / 3840x2160 / 23,976 fps / 16:9 / Main 10 @ Level 5.1 @ High / 4:2:0 / 10 bits / HDR10 / Limited Range / BT.2020
Аудио 1: Russian AC3 / 5.1 / 48 kHz / 640 kbps / 16-bit |Dub, Blu-Ray|
Аудио 2: Russian DTS-HD Master Audio / 5.1 / 48 kHz / 3688 kbps / 24-bit (DTS Core: 5.1 / 48 kHz / 1509 kbps / 24-bit) |Dub, Custom|
Аудио 3: Russian DTS-HD Master Audio / 5.1 / 48 kHz / 3738 kbps / 24-bit (DTS Core: 5.1 / 48 kHz / 1509 kbps / 24-bit) |DVO, Кубик в Кубе|
Аудио 4: Russian DTS-HD Master Audio / 5.1 / 48 kHz / 3747 kbps / 24-bit (DTS Core: 5.1 / 48 kHz / 1509 kbps / 24-bit) |DVO, BBC Saint-Petersburg|
Аудио 5: Russian DTS-HD Master Audio / 5.1 / 48 kHz / 3732 kbps / 24-bit (DTS Core: 5.1 / 48 kHz / 1509 kbps / 24-bit) |А. Гаврилов|
Аудио 6: Russian DTS-HD Master Audio / 5.1 / 48 kHz / 3724 kbps / 24-bit (DTS Core: 5.1 / 48 kHz / 1509 kbps / 24-bit) |Ю. Сербин|
Аудио 7: Russian DTS-HD Master Audio / 5.1 / 48 kHz / 3745 kbps / 24-bit (DTS Core: 5.1 / 48 kHz / 1509 kbps / 24-bit) |Е. Гаевский|
Аудио 8: English DTS-HD Master Audio / 5.1 / 48 kHz / 3821 kbps / 24-bit (DTS Core: 5.1 / 48 kHz / 1509 kbps / 24-bit) |original|
Навигация по главам: есть

Top IMDB 250: №11
Top Кинопоиск 250: №5

• Джеймс Франко начал вести переговоры с Кристофером Ноланом по поводу роли в фильме. Однако, из-за разногласий в расписании актера, он не смог присоединиться к актерской команде. Джозеф Гордон-Левитт в конечном счете получил роль, предназначенную Франко.
• Кристофер Нолан впервые предложил студии идею "Начала" в 2002 году, однако тогда у него еще не был готов сценарий, дописать который он собирался за пару месяцев. И закончил только через восемь лет.
• Съемки фильма начались 13 июля 2009 года.
• Леонардо ДиКаприо был первым актером, который дал согласие на участие в проекте.
• Персонажа Леонардо Ди Каприо зовут Дом Кобб. Коббом представился профессиональный вор в дебютном фильме Нолана — «Преследование».
• Первоначальное название сценария — «Стрела Оливера».
• Герои фильма выходят из состояния сна под песню Эдит Пиаф «Non, Je Ne Regrette Rien» (Нет, я ни о чём не жалею). Марион Котийяр в 2007 году исполняла роль Эдит Пиаф.
• В 2008 году Марион Котияр и Эллен Пэйдж, обе номинировались на "Оскар" в категории "Лучшая актриса". Статуэтка досталась Котияр.
• На роль Ариадны Нолан хотел пригласить звезду авторского кино Эван Рэйчел Вуд, но актриса заявила, что не заинтересована в сотрудничестве.
• «Начало» стало первым фильмом Тома Беренджера со времен «Тренировочного дня», добравшимся до киноэкранов США.
• В процессе переделки сценария, помимо прочего, изменились и имена главных героев. Так, персонаж Ди Каприо звался Джейкобом Хэстли, а героиню Эллен Пейдж звали Изабеллой.
• На роль Ариадны рассматривались Кира Найтли, Эмили Блант и Эмма Робертс.
• Фонетически, «Кобб» означает «мечта» (khwab) на санскрите, хинди, урду и пенджаби. В фильме Кобб мечтал попасть обратно домой.
• "Начало" — первый со времен полнометражного дебюта режиссера фильм, поставленный по оригинальном сценарию (то есть не экранизация, сиквел и проч.)
Оскар, 2011 год

Победитель (4):
• Лучшая работа оператора
• Лучший звук
• Лучший монтаж звука
• Лучшие визуальные эффекты

Номинации (4):
• Лучший фильм
• Лучший сценарий
• Лучшие декорации
• Лучший саундтрек

Золотой глобус, 2011 год

Номинации (4):
• Лучший фильм (драма)
• Лучший режиссер (Кристофер Нолан)
• Лучший сценарий
• Лучший саундтрек

Премия канала «MTV», 2011 год

Победитель (1):
• Лучший испуг (Эллен Пейдж)

Номинации (6):
• Лучший фильм
• Лучшая драка
• Самый безумный эпизод
• Лучшая фраза
• Самая «крутая» звезда (Джозеф Гордон-Левитт)
• Лучший поцелуй (Джозеф Гордон-Левитт, Эллен Пейдж)

Британская академия, 2011 год

Победитель (3):
• Лучший звук
• Лучшие визуальные эффекты
• Лучшая работа художника-постановщика (Ларри Диас, Гай Диас, Дуглас А. Моуат)

Номинации (6):
• Лучший фильм
• Лучший оригинальный сценарий
• Лучшая работа оператора (Уолли Пфистер)
• Лучший монтаж
• Премия имени Энтони Эскуита за достижения в создании музыки к фильму
• Премия имени Дэвида Лина за достижения в режиссуре (Кристофер Нолан)

Сезар, 2011 год

Номинации (1):
• Лучший фильм на иностранном языке

Жорж, 2011 год

Победитель (1):
• Лучший зарубежный экшн

Номинации (1):
• Лучшая зарубежная драм
Общее
Уникальный идентификатор : 247819269861048929246978549439514568917 (0xBA704158DC5A85D9E4D41F314E2468D5)
Полное имя : H:\UHD\Начало.2010.UHD.Blu-Ray.Remux.2160p.mkv
Формат : Matroska
Версия формата : Version 4
Размер файла : 89,1 Гбайт
Продолжительность : 2 ч. 28 м.
Режим общего битрейта : Переменный
Общий поток : 86,1 Мбит/сек
Дата кодирования : UTC 2019-02-20 18:46:33
Программа кодирования : mkvmerge v31.0.0 ('Dolores In A Shoestand') 64-bit
Библиотека кодирования : libebml v1.3.6 + libmatroska v1.4.9
Attachments : poster.jpg

Видео
Идентификатор : 1
Формат : HEVC
Формат/Информация : High Efficiency Video Coding
Коммерческое название : HDR10
Профиль формата : Main [email protected]@High
Идентификатор кодека : V_MPEGH/ISO/HEVC
Продолжительность : 2 ч. 28 м.
Битрейт : 59,2 Мбит/сек
Ширина : 3840 пикселей
Высота : 2160 пикселей
Соотношение сторон : 16:9
Режим частоты кадров : Постоянный
Частота кадров : 23,976 (24000/1001) кадра/сек
Цветовое пространство : YUV
Субдискретизация насыщенности : 4:2:0 (Type 2)
Битовая глубина : 10 бит
Бит/(Пиксели*Кадры) : 0.298
Размер потока : 61,3 Гбайт (69%)
Библиотека кодирования : ATEME Titan File 3.8.3 (4.8.3.0)
Default : Да
Forced : Нет
Цветовой диапазон : Limited
Основные цвета : BT.2020
Характеристики трансфера : PQ
Коэффициенты матрицы : BT.2020 non-constant
MasteringDisplay_ColorPrimaries : Display P3
MasteringDisplay_Luminance : min: 0.0050 cd/m2, max: 4000 cd/m2
MaxCLL : 1538 cd/m2
MaxFALL : 308 cd/m2

Аудио #1
Идентификатор : 2
Формат : AC-3
Формат/Информация : Audio Coding 3
Коммерческое название : Dolby Digital
Идентификатор кодека : A_AC3
Продолжительность : 2 ч. 28 м.
Вид битрейта : Постоянный
Битрейт : 640 Кбит/сек
Каналы : 6 каналов
Channel layout : L R C LFE Ls Rs
Частота : 48,0 КГц
Частота кадров : 31,250 кадров/сек (1536 SPF)
Битовая глубина : 16 бит
Метод сжатия : С потерями
Размер потока : 678 Мбайт (1%)
Заголовок : Dub, Blu-Ray
Язык : Russian
ServiceKind/String : Complete Main
Default : Да
Forced : Нет

Аудио #2
Идентификатор : 3
Формат : DTS XLL
Формат/Информация : Digital Theater Systems
Коммерческое название : DTS-HD Master Audio
Идентификатор кодека : A_DTS
Продолжительность : 2 ч. 28 м.
Вид битрейта : Переменный
Битрейт : 3688 Кбит/сек
Каналы : 6 каналов
Channel layout : C L R Ls Rs LFE
Частота : 48,0 КГц
Частота кадров : 93,750 кадра/сек (512 SPF)
Битовая глубина : 24 бит
Метод сжатия : Без потерь
Размер потока : 3,82 Гбайт (4%)
Заголовок : Dub, Custom
Язык : Russian
Default : Нет
Forced : Нет

Аудио #3
Идентификатор : 4
Формат : DTS XLL
Формат/Информация : Digital Theater Systems
Коммерческое название : DTS-HD Master Audio
Идентификатор кодека : A_DTS
Продолжительность : 2 ч. 28 м.
Вид битрейта : Переменный
Битрейт : 3738 Кбит/сек
Каналы : 6 каналов
Channel layout : C L R Ls Rs LFE
Частота : 48,0 КГц
Частота кадров : 93,750 кадра/сек (512 SPF)
Битовая глубина : 24 бит
Метод сжатия : Без потерь
Размер потока : 3,87 Гбайт (4%)
Заголовок : DVO, Кубик в Кубе
Язык : Russian
Default : Нет
Forced : Нет

Аудио #4
Идентификатор : 5
Формат : DTS XLL
Формат/Информация : Digital Theater Systems
Коммерческое название : DTS-HD Master Audio
Идентификатор кодека : A_DTS
Продолжительность : 2 ч. 28 м.
Вид битрейта : Переменный
Битрейт : 3747 Кбит/сек
Каналы : 6 каналов
Channel layout : C L R Ls Rs LFE
Частота : 48,0 КГц
Частота кадров : 93,750 кадра/сек (512 SPF)
Битовая глубина : 24 бит
Метод сжатия : Без потерь
Размер потока : 3,88 Гбайт (4%)
Заголовок : DVO, BBC Saint-Petersburg
Язык : Russian
Default : Нет
Forced : Нет

Аудио #5
Идентификатор : 6
Формат : DTS XLL
Формат/Информация : Digital Theater Systems
Коммерческое название : DTS-HD Master Audio
Идентификатор кодека : A_DTS
Продолжительность : 2 ч. 28 м.
Вид битрейта : Переменный
Битрейт : 3732 Кбит/сек
Каналы : 6 каналов
Channel layout : C L R Ls Rs LFE
Частота : 48,0 КГц
Частота кадров : 93,750 кадра/сек (512 SPF)
Битовая глубина : 24 бит
Метод сжатия : Без потерь
Размер потока : 3,86 Гбайт (4%)
Заголовок : А. Гаврилов
Язык : Russian
Default : Нет
Forced : Нет

Аудио #6
Идентификатор : 7
Формат : DTS XLL
Формат/Информация : Digital Theater Systems
Коммерческое название : DTS-HD Master Audio
Идентификатор кодека : A_DTS
Продолжительность : 2 ч. 28 м.
Вид битрейта : Переменный
Битрейт : 3724 Кбит/сек
Каналы : 6 каналов
Channel layout : C L R Ls Rs LFE
Частота : 48,0 КГц
Частота кадров : 93,750 кадра/сек (512 SPF)
Битовая глубина : 24 бит
Метод сжатия : Без потерь
Размер потока : 3,85 Гбайт (4%)
Заголовок : Ю. Сербин
Язык : Russian
Default : Нет
Forced : Нет

Аудио #7
Идентификатор : 8
Формат : DTS XLL
Формат/Информация : Digital Theater Systems
Коммерческое название : DTS-HD Master Audio
Идентификатор кодека : A_DTS
Продолжительность : 2 ч. 28 м.
Вид битрейта : Переменный
Битрейт : 3745 Кбит/сек
Каналы : 6 каналов
Channel layout : C L R Ls Rs LFE
Частота : 48,0 КГц
Частота кадров : 93,750 кадра/сек (512 SPF)
Битовая глубина : 24 бит
Метод сжатия : Без потерь
Размер потока : 3,88 Гбайт (4%)
Заголовок : Е. Гаевский
Язык : Russian
Default : Нет
Forced : Нет

Аудио #8
Идентификатор : 9
Формат : DTS XLL
Формат/Информация : Digital Theater Systems
Коммерческое название : DTS-HD Master Audio
Идентификатор кодека : A_DTS
Продолжительность : 2 ч. 28 м.
Вид битрейта : Переменный
Битрейт : 3821 Кбит/сек
Каналы : 6 каналов
Channel layout : C L R Ls Rs LFE
Частота : 48,0 КГц
Частота кадров : 93,750 кадра/сек (512 SPF)
Битовая глубина : 24 бит
Метод сжатия : Без потерь
Размер потока : 3,95 Гбайт (4%)
Язык : English
Default : Нет
Forced : Нет

Текст #1
Идентификатор : 10
Формат : UTF-8
Идентификатор кодека : S_TEXT/UTF8
Идентификатор кодека/Информация : UTF-8 Plain Text
Продолжительность : 2 ч. 26 м.
Битрейт : 0 бит/сек
ElementCount : 15
Размер потока : 599 байт (0%)
Заголовок : forced
Язык : Russian
Default : Да
Forced : Нет

Текст #2
Идентификатор : 11
Формат : UTF-8
Идентификатор кодека : S_TEXT/UTF8
Идентификатор кодека/Информация : UTF-8 Plain Text
Продолжительность : 2 ч. 26 м.
Битрейт : 89 бит/сек
ElementCount : 1615
Размер потока : 95,7 Кбайт (0%)
Заголовок : full
Язык : Russian
Default : Нет
Forced : Нет

Текст #3
Идентификатор : 12
Формат : UTF-8
Идентификатор кодека : S_TEXT/UTF8
Идентификатор кодека/Информация : UTF-8 Plain Text
Продолжительность : 2 ч. 9 м.
Битрейт : 0 бит/сек
ElementCount : 12
Размер потока : 493 байт (0%)
Заголовок : forced, Е. Воронин
Язык : Russian
Default : Нет
Forced : Нет

Текст #4
Идентификатор : 13
Формат : UTF-8
Идентификатор кодека : S_TEXT/UTF8
Идентификатор кодека/Информация : UTF-8 Plain Text
Продолжительность : 2 ч. 19 м.
Битрейт : 99 бит/сек
ElementCount : 1541
Размер потока : 102 Кбайт (0%)
Заголовок : full, Е. Воронин
Язык : Russian
Default : Нет
Forced : Нет

Текст #5
Идентификатор : 14
Формат : UTF-8
Идентификатор кодека : S_TEXT/UTF8
Идентификатор кодека/Информация : UTF-8 Plain Text
Продолжительность : 2 ч. 20 м.
Битрейт : 103 бит/сек
ElementCount : 1688
Размер потока : 106 Кбайт (0%)
Заголовок : SDH, Е. Воронин
Язык : Russian
Default : Нет
Forced : Нет

Текст #6
Идентификатор : 15
Формат : UTF-8
Идентификатор кодека : S_TEXT/UTF8
Идентификатор кодека/Информация : UTF-8 Plain Text
Продолжительность : 2 ч. 18 м.
Битрейт : 59 бит/сек
ElementCount : 1580
Размер потока : 60,8 Кбайт (0%)
Заголовок : full
Язык : English
Default : Нет
Forced : Нет

Текст #7
Идентификатор : 16
Формат : UTF-8
Идентификатор кодека : S_TEXT/UTF8
Идентификатор кодека/Информация : UTF-8 Plain Text
Продолжительность : 2 ч. 27 м.
Битрейт : 59 бит/сек
ElementCount : 1738
Размер потока : 64,3 Кбайт (0%)
Заголовок : SDH
Язык : English
Default : Нет
Forced : Нет

Меню
00:00:00.000 : :Washed Ashore
00:11:41.742 : :Dream On A Train
00:21:37.337 : :A Paris Architect
00:31:20.336 : :Bilding Within A Dream
00:41:22.229 : :Seeking A Chemist
00:51:13.737 : :The Plan
01:01:21.552 : :Boarding The Plane
01:10:29.683 : :Kidnapping
01:22:15.597 : :The Safe's Combination
01:31:52.590 : :A Deeper Dream
01:40:38.532 : :The Ski Dream
01:51:22.175 : :Mal's Here
02:00:54.413 : :Our Children
02:10:09.051 : :The Kick
02:20:55.447 : :End Credits
pb.wtf



Скачать Начало через торрент https://d.radikal.ru/d22/1805/01/057d312645e6.png Скачать, смотреть онлайн Начало бесплантно в хорошем качестве Описание: Кобб - талантливый вор, лучший из лучших в опасном искусстве извлечения: он крадет ценные секреты из глубин подсознания во время ... 10 10 5
Торрент: Зарегистрирован [2019-03-27 07:52] · скачан: 87 раз
Статус: √ проверено
Размер: 89.07 GB
Как cкачать? Как скачать Начало через торрент | UTorrent

% Раздел Тема Автор DL S | L
Ultra HD (UHD: 2K, 4K, 8K) — видео сверхвысокой чёткости [ 43.99 GB ] Начало / Inception [2010 UHD BDRip 2160p] DUB + 2xDVO + 2xAVO sheker187 Скачать
1 | 0
Ultra HD (UHD: 2K, 4K, 8K) — видео сверхвысокой чёткости [ 86.52 GB ] Начало / Inception [2010 UHD BDRemux 2160p] DUB [rus ukr] + 2xDVO + 2xAVO sheker187 Скачать
1 | 0
Фильмы [HD 720p, 1080p] (Хороший звук DUB, MVO) [ 20.89 GB ] Начало / Inception [2010 BDRip 1080p] Dub + 2xDVO + 2xAVO + Original + Sub Seedtank Скачать
1 | 0

28-11-2019 20:33  

Отключить вcю реклaмy на сайте

    Дорогой пользователь! Огромная просьба, поблагодарите релизера, оцените раздачу и оставьте свои комментарий, если Вы скачали Начало через торрент бесплатно!
    Комментировать посты могут только пользователи прошедшие не сложную регистрацию
    Показать сообщения:    

    Начало через торрент
    Скачать бесплатно Начало
    Начало скачать торрент
    Начало смотреть онлайн
    Cкачать фильм Начало бесплатно
    Начало скачать торрент в хорошем качестве
    Начало смотреть онлайн бесплатно в хорошем качестве


    Вы не можете начинать темы
    Вы не можете отвечать на сообщения
    Вы не можете редактировать свои сообщения
    Вы не можете удалять свои сообщения
    Вы не можете голосовать в опросах
    Вы не можете прикреплять файлы к сообщениям
    Вы можете скачивать файлы