Ссылка на приватное зеркало всего за 1$. Внимание количество ограничено!!!

OK

1+1

iTunes

мы

OK

1

WEB-DLRip

Джокер

Пифагор

Ведьмак / The Witcher сериал

iTunes

ПШазам

ОК

Оно 2

iTunes

30
pack

Вам бонус

ВАЖНО

!!Акция!!

Alien_RageХит недели

RePack

Resident Evil 21

ИГРА 18+

pack

RePack

jed

RePack

fifa19

RePack

Assassins Creed: Odyssey

RePack

NEED FOR SPEED™ PAYBACK

4 сезон

9 сезон

Бесстыжие 9 сезон

Все сериалы

все сериалы на PB.wtf

RePack

FAR CRY 5
  

Халтура / Sundowners (Паван Мунди) [2017, драма, комедия, WEB-DL 720p] MVO ["Синема УС"] pb.wtf

Халтура через торрент pb.wtf

Размер: 3.98 GB | Добавлен: 11 мес. назад | Торрент скачан:15 раз
Скачать  

21-02-2019 02:16 Халтура Скачать торрент  

Халтура / SundownersГод выпуска: 2017
Страна: США
Жанр: драма, комедия
Продолжительность: 01:38:53
Перевод: Любительский (многоголосый) | "Синема УС"
Субтитры: отсутствуют

Режиссер: Паван Мунди

rating

В ролях:

Фил Хэнли, Люк Лалонд, Тим Хайдекер, Кара Ги, Ник Флэнеган, Крис Лок, Джеймс Хартнет, Лия Фэй Гольдштейн, Джеки Пирико, Дэвид Джон Филлипс

Описание:

Описание длительного путешествия двух незадачливых видеооператоров. За время своего пути они попадают во множество разных передряг, многое узнают о себе и об окружающем мире. В конце концов они становятся совершенно другими людьми.

Качество: WEB-DL 720p
Формат: MKV

Видео: h.264,5 376 Кбит/с, 1280x536
Аудио#1: Русский, (AC3, 2 ch, 384 Кбит/с)
скриншот  скриншот  скриншот  

Общее
Уникальный идентификатор : 209247538658476982381853530308320115839 (0x9D6B9C2C2EAC543CB65F2F1356073C7F)
Полное имя : D:\Sundowners.2017.P.WEB-DL.72Op.mkv
Формат : Matroska
Версия формата : Version 2
Размер файла : 3,98 Гбайт
Продолжительность : 1 ч. 38 м.
Режим общего битрейта : Переменный
Общий поток : 5762 Кбит/сек
Дата кодирования : UTC 2019-02-20 13:50:53
Программа кодирования : mkvmerge v8.3.0 ('Over the Horizon') 64bit
Библиотека кодирования : libebml v1.3.1 + libmatroska v1.4.2

Видео
Идентификатор : 1
Формат : AVC
Формат/Информация : Advanced Video Codec
Профиль формата : High@L4.1
Параметр CABAC формата : Да
Параметр RefFrames формата : 4 кадра
Идентификатор кодека : V_MPEG4/ISO/AVC
Продолжительность : 1 ч. 38 м.
Вид битрейта : Переменный
Битрейт : 5376 Кбит/сек
Максимальный битрейт : 6000 Кбит/сек
Ширина : 1280 пикселей
Высота : 536 пикселей
Соотношение сторон : 2,40:1
Режим частоты кадров : Постоянный
Частота кадров : 23,976 (24000/1001) кадра/сек
Стандарт вещания : Component
Цветовое пространство : YUV
Субдискретизация насыщенности : 4:2:0
Битовая глубина : 8 бит
Тип развёртки : Прогрессивная
Бит/(Пиксели*Кадры) : 0.320
Размер потока : 3,64 Гбайт (91%)
Default : Да
Forced : Нет
Цветовой диапазон : Limited
Основные цвета : BT.709
Характеристики трансфера : BT.709
Коэффициенты матрицы : BT.709

Аудио
Идентификатор : 2
Формат : AC-3
Формат/Информация : Audio Coding 3
Расширение режима : CM (complete main)
Параметр Endianness формата : Big
Идентификатор кодека : A_AC3
Продолжительность : 1 ч. 38 м.
Вид битрейта : Постоянный
Битрейт : 384 Кбит/сек
Каналы : 2 канала
Расположение каналов : Front: L R
Частота : 48,0 КГц
Частота кадров : 31,250 кадров/сек (1536 spf)
Метод сжатия : С потерями
Размер потока : 272 Мбайт (7%)
Default : Да
Forced : Нет

pb.wtf



Скачать Халтура через торрент https://b.radikal.ru/b05/1902/60/1bc900c91dd8.jpg Скачать фильм Халтура через торрент бесплантно в хорошем качестве Описание: Описание длительного путешествия двух незадачливых видеооператоров. За время своего пути они попадают во множество разных ... 9.7 10 3
Торрент: Зарегистрирован [2019-02-21 02:16] · скачан: 15 раз
Статус: T временная
Размер: 3.98 GB
Как cкачать? Как скачать Халтура через торрент | qTorrent

% Раздел Тема Автор DL S | L
T Фильмы (мультфильмы) cо спонсором показа (Новинки AVI/MKV) [ 1.37 GB ] Халтура / Sundowners [2017 WEB-DLRip] MVO ["Синема УС"] bober100 Скачать
2 | 0

28-11-2019 20:33  

Отключить всю рекламу на сайте


    Дорогой пользователь! Огромная просьба, поблагодарите релизера, оцените раздачу и оставьте свои комментарий, если Вы скачали Халтура через торрент бесплатно! Внесите свою лепту в развитие PiratBit!
    Комментировать посты могут только пользователи прошедшие не сложную регистрацию
    Показать сообщения:    

    Халтура через торрент
    Скачать бесплатно Халтура
    Халтура скачать торрент
    Халтура смотреть онлайн
    Cкачать фильм Халтура бесплатно
    Халтура скачать торрент в хорошем качестве
    Халтура смотреть онлайн бесплатно в хорошем качестве


    Вы не можете начинать темы
    Вы не можете отвечать на сообщения
    Вы не можете редактировать свои сообщения
    Вы не можете удалять свои сообщения
    Вы не можете голосовать в опросах
    Вы не можете прикреплять файлы к сообщениям
    Вы можете скачивать файлы