Ссылка на приватное зеркало нашего сайта всего за 1$. Внимание количество ограничено!!!

2 сезон

iTunes

iTunes

1

iTunes

iTunes

iTunes

WEBRip

iTunes

30
pack

Новость дня

ВАЖНО

!!Акция!!

Alien_RageХит недели

RePack

Horizon Zero Dawn

ИГРА 18+

pack

RePack

jed

!!Акция!!

Alien_Rage

RePack

fifa19

RePack

Assassins Creed: Odyssey

RePack

NEED FOR SPEED™ PAYBACK

4 сезон

9 сезон

Бесстыжие 9 сезон

Все сериалы

все сериалы на PB.wtf

RePack

FAR CRY 5
  

Жатва смерти / Harvest of the Dead (Питер Годдар, Сэм Мейсон-Белл) [2015, ужасы, WEB-DL 720p] MVO ["Синема УС"] pb.wtf

Жатва смерти через торрент pb.wtf

Размер: 3.53 GB | Добавлен: 1 год 7 мес. назад | Торрент скачан:24 раза
Скачать  

21-02-2019 04:16 Жатва смерти Скачать торрент  

Жатва смерти / Harvest of the Dead Год выпуска: 2015
Страна: Великобритания
Жанр: ужасы
Продолжительность: 01:30:30
Перевод: Любительский (многоголосый) | "Синема УС"
Субтитры: отсутствуют

Режиссер: Питер Годдар, Сэм Мейсон-Белл

rating

В ролях:

Фиона Фокс, Холли Рэнсом, Ханна Коли, Джули Грант, Тим Фарадей, Джеймс Парр, Лора Кови, Ли Крэвен, Джемма Уилкс, Эбби Уэрхэм

Описание:

Картина "Жатва смерти" была выпущена в 2015 году и сразу завоевала внимание зрителей в разных частях планеты. Киноленты из жанра ужасы всегда пользовались особой популярностью, к тому же, когда их снимают такие именитые режиссеры, как Питер Годдар. Страна, которая приложила руку к этому кинопроизведению считается Великобритания, потому зрители уже могут приблизительно представить уровень логики по аналогичным творениям.

Качество: WEB-DL 720p
Формат: MKV

Видео: h.264,5 438kb/s, 1280x720
Аудио: Русский, (AC3, 2 ch, 384 Кбит/с)
скриншот  скриншот  скриншот  

Общее
Уникальный идентификатор : 221311155554376392094599191138269912166 (0xA67EFA68191F7502929265BC08DBDC66)
Полное имя : D:\Harvest.of.the.Dead.2015.P.WEB-DL.72Op_KOSHARA.mkv
Формат : Matroska
Версия формата : Version 2
Размер файла : 3,53 Гбайт
Продолжительность : 1 ч. 30 м.
Режим общего битрейта : Переменный
Общий поток : 5583 Кбит/сек
Дата кодирования : UTC 2019-02-20 12:52:06
Программа кодирования : mkvmerge v8.3.0 ('Over the Horizon') 64bit
Библиотека кодирования : libebml v1.3.1 + libmatroska v1.4.2

Видео
Идентификатор : 1
Формат : AVC
Формат/Информация : Advanced Video Codec
Профиль формата : High@L4.1
Параметр CABAC формата : Да
Параметр RefFrames формата : 4 кадра
Идентификатор кодека : V_MPEG4/ISO/AVC
Продолжительность : 1 ч. 30 м.
Вид битрейта : Переменный
Битрейт : 5438 Кбит/сек
Максимальный битрейт : 6000 Кбит/сек
Ширина : 1280 пикселей
Высота : 720 пикселей
Соотношение сторон : 16:9
Режим частоты кадров : Постоянный
Частота кадров : 23,976 (24000/1001) кадра/сек
Стандарт вещания : Component
Цветовое пространство : YUV
Субдискретизация насыщенности : 4:2:0
Битовая глубина : 8 бит
Тип развёртки : Прогрессивная
Бит/(Пиксели*Кадры) : 0.230
Размер потока : 3,22 Гбайт (91%)
Default : Да
Forced : Нет
Цветовой диапазон : Limited
Основные цвета : BT.709
Характеристики трансфера : BT.709
Коэффициенты матрицы : BT.709

Аудио
Идентификатор : 2
Формат : AC-3
Формат/Информация : Audio Coding 3
Расширение режима : CM (complete main)
Параметр Endianness формата : Big
Идентификатор кодека : A_AC3
Продолжительность : 1 ч. 30 м.
Вид битрейта : Постоянный
Битрейт : 384 Кбит/сек
Каналы : 2 канала
Расположение каналов : Front: L R
Частота : 48,0 КГц
Частота кадров : 31,250 кадров/сек (1536 spf)
Метод сжатия : С потерями
Размер потока : 249 Мбайт (7%)
Default : Да
Forced : Нет

pb.wtf



Скачать Жатва смерти через торрент https://d.radikal.ru/d30/1902/d9/5ba8e4c399c8.jpg Скачать фильм Жатва смерти через торрент бесплантно в хорошем качестве Описание: Картина "Жатва смерти" была выпущена в 2015 году и сразу завоевала внимание зрителей в разных частях планеты. Киноленты из жанра ... 8.2 10 5
Торрент: Зарегистрирован [2019-02-21 04:16] · скачан: 24 раз
Статус: T временная
Размер: 3.53 GB
Как cкачать? Как скачать Жатва смерти через торрент | qTorrent

% Раздел Тема Автор DL S | L
T Фильмы (мультфильмы) cо спонсором показа (Новинки AVI/MKV) [ 1.37 GB ] Жатва смерти / Harvest of the Dead [2015 WEB-DLRip] MVO ["Синема УС"] bober100 Скачать
1 | 0

28-11-2019 20:33  

Отключить всю рекламу на сайте

    Дорогой пользователь! Огромная просьба, поблагодарите релизера, оцените раздачу и оставьте свои комментарий, если Вы скачали Жатва смерти через торрент бесплатно! Внесите свою лепту в развитие PiratBit!
    Комментировать посты могут только пользователи прошедшие не сложную регистрацию
    Показать сообщения:    

    Жатва смерти через торрент
    Скачать бесплатно Жатва смерти
    Жатва смерти скачать торрент
    Жатва смерти смотреть онлайн
    Cкачать фильм Жатва смерти бесплатно
    Жатва смерти скачать торрент в хорошем качестве
    Жатва смерти смотреть онлайн бесплатно в хорошем качестве


    Вы не можете начинать темы
    Вы не можете отвечать на сообщения
    Вы не можете редактировать свои сообщения
    Вы не можете удалять свои сообщения
    Вы не можете голосовать в опросах
    Вы не можете прикреплять файлы к сообщениям
    Вы можете скачивать файлы