Ссылка на приватное зеркало всего за 1$. Внимание количество ограничено!!!

OK

1+1

iTunes

мы

OK

1

WEB-DLRip

Джокер

Пифагор

Ведьмак / The Witcher сериал

Лицензия

ПШазам

ОК

Оно 2

iTunes

30
pack

Вам бонус

ВАЖНО

!!Акция!!

Alien_RageХит недели

RePack

Resident Evil 21

ИГРА 18+

pack

RePack

jed

!!Акция!!

Alien_Rage

RePack

fifa19

RePack

Assassins Creed: Odyssey

RePack

NEED FOR SPEED™ PAYBACK

4 сезон

9 сезон

Бесстыжие 9 сезон

Все сериалы

все сериалы на PB.wtf

RePack

FAR CRY 5
  

Ежегодное послание Президента России Владимира Путина Федеральному Собранию [20.02] [2019, Документальный, Политика, HDTV 1080i] pb.wtf

Ежегодное послание Президента России Владимира Путина Федеральному Собранию через торрент pb.wtf

Размер: 7.74 GB | Добавлен: 10 мес. назад | Торрент скачан:9 раз
Скачать  

21-02-2019 04:52 Ежегодное послание Президента России Владимира Путина Федеральному Собранию Скачать торрент  

Ежегодное послание Президента России Владимира Путина Федеральному Собранию [20.02] Год выпуска: 2019
Страна: Россия
Жанр: Документальный, Политика
Продолжительность: 01:29:14
Перевод: Не требуется
Субтитры: отсутствуют

Описание:

Владимир Путин обратился с Посланием к Федеральному Собранию. Церемония оглашения прошла в Москве, в Гостином дворе. На церемонии присутствовали члены Совета Федерации, депутаты Государственной Думы, члены Правительства, руководители Конституционного и Верховного судов, губернаторский корпус.

Качество: HDTV 1080i
Формат: MKV

Видео: AVC/H.264, 1920x1080 (16:9), ~12.0 Mbps
Аудио: AAC, 2 ch, 446 Kbps

скриншот  скриншот  скриншот  скриншот  скриншот  

General
Unique ID : 204297026541990779792296760239234525104 (0x99B22D14AB861624C5D85B973748A7B0)
Complete name : D:Ежегодное послание Президента России Владимира Путина Федеральному Собранию 20.02.2019.mkv
Format : Matroska
Format version : Version 4
File size : 7.74 GiB
Duration : 1 h 29 min
Overall bit rate : 12.4 Mb/s
Encoded date : UTC 2019-02-20 19:32:31
Writing application : mkvmerge v30.1.0 ('Forever And More') 64-bit
Writing library : libebml v1.3.6 + libmatroska v1.4.9
Cover : Yes
Attachments : cover.png

Video
ID : 1
Format : AVC
Format/Info : Advanced Video Codec
Format profile : High@L4
Format settings : CABAC / 4 Ref Frames
Format settings, CABAC : Yes
Format settings, ReFrames : 4 frames
Codec ID : V_MPEG4/ISO/AVC
Duration : 1 h 29 min
Bit rate : 12.0 Mb/s
Width : 1 920 pixels
Height : 1 080 pixels
Display aspect ratio : 16:9
Frame rate mode : Constant
Frame rate : 25.000 FPS
Standard : Component
Color space : YUV
Chroma subsampling : 4:2:0
Bit depth : 8 bits
Scan type : Interlaced
Scan type, store method : Separated fields
Scan order : Top Field First
Bits/(Pixel*Frame) : 0.231
Stream size : 7.46 GiB (96%)
Language : Russian
Default : Yes
Forced : No
Color range : Limited
Color primaries : BT.709
Transfer characteristics : BT.709
Matrix coefficients : BT.709

Audio
ID : 2
Format : AAC LC
Format/Info : Advanced Audio Codec Low Complexity
Codec ID : A_AAC-2
Duration : 1 h 29 min
Bit rate : 446 kb/s
Channel(s) : 2 channels
Channel layout : L R
Sampling rate : 44.1 kHz
Frame rate : 43.066 FPS (1024 SPF)
Compression mode : Lossy
Stream size : 284 MiB (4%)
Language : Russian
Default : Yes
Forced : No

pb.wtf



Скачать Ежегодное послание Президента России Владимира Путина Федеральному Собранию через торрент https://a.radikal.ru/a12/1803/ae/4550ebb5fb45.jpg Скачать фильм Ежегодное послание Президента России Владимира Путина Федеральному Собранию [20.02] [2019, Документальный, Политика, HDTV 1080i]через торрент бесплантно в хорошем качестве Описание: Владимир Путин обратился с Посланием к Федеральному Собранию. Церемония оглашения прошла в Москве, в Гостином дворе. На церемонии ... 6.6 10 8
Торрент: Зарегистрирован [2019-02-21 04:52] · скачан: 9 раз
Статус: √ проверено
Размер: 7.74 GB
Как cкачать? Как скачать Ежегодное послание Президента России Владимира Путина Федеральному Собранию через торрент | qTorrent

28-11-2019 20:33  

Отключить всю рекламу на сайте

    Дорогой пользователь! Огромная просьба, поблагодарите релизера, оцените раздачу и оставьте свои комментарий, если Вы скачали Ежегодное послание Президента России Владимира Путина Федеральному Собранию через торрент бесплатно! Внесите свою лепту в развитие PiratBit!
    Комментировать посты могут только пользователи прошедшие не сложную регистрацию
    Показать сообщения:    

    Ежегодное послание Президента России Владимира Путина Федеральному Собранию через торрент
    Скачать бесплатно Ежегодное послание Президента России Владимира Путина Федеральному Собранию
    Ежегодное послание Президента России Владимира Путина Федеральному Собранию скачать торрент
    Ежегодное послание Президента России Владимира Путина Федеральному Собранию смотреть онлайн
    Cкачать фильм Ежегодное послание Президента России Владимира Путина Федеральному Собранию бесплатно
    Ежегодное послание Президента России Владимира Путина Федеральному Собранию скачать торрент в хорошем качестве
    Ежегодное послание Президента России Владимира Путина Федеральному Собранию смотреть онлайн бесплатно в хорошем качестве


    Вы не можете начинать темы
    Вы не можете отвечать на сообщения
    Вы не можете редактировать свои сообщения
    Вы не можете удалять свои сообщения
    Вы не можете голосовать в опросах
    Вы не можете прикреплять файлы к сообщениям
    Вы можете скачивать файлы