Достать ножи: Стеклянная луковица

MVO

Добыча

Дубляж

Уэнсдэй

1 сезон

Тор

Дубляж

13 клиническая

1 сезон

Жестокая ночь

MVO

Одни из нас

1 сезон

Deluxe

pack

Рекомендуем

30

Пиратка

ВАЖНО

ВАЖНО

Ghostwire

Пиратка

jed

RePack

nioh2

RePack

RDR2

RePack

NEED FOR SPEED™ PAYBACK

RePack

скачать торрент

Кинопоиск HD

Острые козырьки 6 сезон

6 сезон

FAR CRY 6

RePack

скачать торрент

Лицензия

скачать торрент

MVO

1

1 сезон

скачать торрент

1 сезон

скачать торрент

Лицензия

  

Близко / Close (Вики Джуисон) [2019, боевик, триллер, WEBRip 1080p] MVO [HDRezka]

Близко через торрент pb.wtf

Размер: 3.07 GB | Добавлен: 3 года 11 мес. назад | Торрент скачан:402 раза
Смотреть онлайн | Скачать | Поддержите нас   

21-02-2019 08:14 Близко Скачать торрент  

Близко / Close Год выпуска: 2019
Страна: Великобритания, США
Жанр: боевик, триллер
Продолжительность: 01:34:38
Перевод: Профессиональный (многоголосый) | HDRezka
Субтитры: Английские (форс., SDH)

Режиссер: Вики Джуисон

rating

В ролях:

Нуми Рапас, Индира Варма, Софи Нелисс, Оуэн Мэкен, Чарли Палмер Ротуэлл, Акин Гази, Хув Парментер, Джордж Джорджиу, Кристофер Сиуреф, Оливия Джуисон

Описание:

Сюжет повествует об эксперте по безопасности Сэм, которую нанимает богатая семья, чтобы она защитила Зои, избалованную наследницу их бизнес-империи. Вскоре на девушку открывают настоящую охоту, и Сэм остается ее единственным шансом на выживание.

Качество: WEBRip 1080p
Формат: MKV

Видео: 1920x1080 (16:9), 24,000 fps, x264 ~3 830 kbps avg, 0.077 bit/pixel
Аудио#1: 48 kHz, AC3 Dolby Digital, 2 (L,R) ch, ~192.00 kbps avg | RUS (HDRezka)
Аудио#2: 48 kHz, E-AC3 Dolby Digital Plus, 3/2 (L,C,R,l,r) + LFE ch, ~640.00 kbps avg | ENG
скриншот  скриншот  скриншот  скриншот  

Общее
Уникальный идентификатор : 82516115155673252858507573818746464753 (0x3E140694C09DF8CCD5185DB08F53E9F1)
Полное имя : F:OlLanDGroupClose.2019.NF.WEBRip(1080p).OlLanDGroup.mkv
Формат : Matroska
Версия формата : Version 4 / Version 2
Размер файла : 3,07 Гбайт
Продолжительность : 1 ч. 34 м.
Режим общего битрейта : Переменный
Общий поток : 4644 Кбит/сек
Название фильма : Close.2019 #TorpeoUK#
Дата кодирования : UTC 2019-02-21 03:35:19
Программа кодирования : mkvmerge v29.0.0 ('Like It Or Not') 64-bit
Библиотека кодирования : libebml v1.3.6 + libmatroska v1.4.9

Видео
Идентификатор : 1
Формат : AVC
Формат/Информация : Advanced Video Codec
Профиль формата : [email protected]
Параметр CABAC формата : Да
Параметр ReFrames формата : 3 кадра
Идентификатор кодека : V_MPEG4/ISO/AVC
Продолжительность : 1 ч. 34 м.
Вид битрейта : Переменный
Битрейт : 3830 Кбит/сек
Максимальный битрейт : 5745 Кбит/сек
Ширина : 1920 пикселей
Высота : 1080 пикселей
Соотношение сторон : 16:9
Режим частоты кадров : Постоянный
Частота кадров : 24,000 кадра/сек
Цветовое пространство : YUV
Субдискретизация насыщенности : 4:2:0
Битовая глубина : 8 бит
Тип развёртки : Прогрессивная
Бит/(Пиксели*Кадры) : 0.077
Размер потока : 2,52 Гбайт (82%)
Библиотека кодирования : x264 core 148 r2715 7e75228
Настройки программы : cabac=1 / ref=3 / deblock=1:0:0 / analyse=0x1:0x111 / me=umh / subme=10 / psy=1 / psy_rd=1.00:0.00 / mixed_ref=1 / me_range=24 / chroma_me=1 / trellis=2 / 8x8dct=0 / cqm=0 / deadzone=21,11 / fast_pskip=1 / chroma_qp_offset=-2 / threads=8 / lookahead_threads=1 / sliced_threads=0 / nr=0 / decimate=1 / interlaced=0 / bluray_compat=0 / stitchable=1 / constrained_intra=0 / bframes=2 / b_pyramid=0 / b_adapt=2 / b_bias=0 / direct=3 / weightb=1 / open_gop=0 / weightp=2 / keyint=48 / keyint_min=25 / scenecut=0 / intra_refresh=0 / rc_lookahead=48 / rc=2pass / mbtree=1 / bitrate=3830 / ratetol=1.0 / qcomp=0.50 / qpmin=6 / qpmax=51 / qpstep=4 / cplxblur=20.0 / qblur=0.5 / vbv_maxrate=5745 / vbv_bufsize=7660 / nal_hrd=vbr / filler=0 / ip_ratio=1.40 / aq=1:1.00
Default : Да
Forced : Нет

Аудио #1
Идентификатор : 2
Формат : AC-3
Формат/Информация : Audio Coding 3
Расширение режима : CM (complete main)
Параметр Endianness формата : Big
Идентификатор кодека : A_AC3
Продолжительность : 1 ч. 34 м.
Вид битрейта : Постоянный
Битрейт : 192 Кбит/сек
Каналы : 2 канала
Расположение каналов : Front: L R
Частота : 48,0 КГц
Частота кадров : 31,250 кадров/сек (1536 spf)
Битовая глубина : 16 бит
Метод сжатия : С потерями
Размер потока : 130 Мбайт (4%)
Заголовок : MVO [HDRezka]
Язык : Russian
Default : Да
Forced : Нет

Аудио #2
Идентификатор : 3
Формат : E-AC-3
Формат/Информация : Enhanced Audio Coding 3
Параметр Endianness формата : Big
Идентификатор кодека : A_EAC3
Продолжительность : 1 ч. 34 м.
Вид битрейта : Постоянный
Битрейт : 640 Кбит/сек
Каналы : 6 каналов
Расположение каналов : Front: L C R, Side: L R, LFE
Частота : 48,0 КГц
Частота кадров : 187,500 кадров/сек (256 spf)
Метод сжатия : С потерями
Размер потока : 433 Мбайт (14%)
Заголовок : English
Язык : English
Default : Нет
Forced : Нет

Текст #1
Идентификатор : 4
Формат : UTF-8
Идентификатор кодека : S_TEXT/UTF8
Идентификатор кодека/Информация : UTF-8 Plain Text
Продолжительность : 32 м. 14 с.
Битрейт : 2 бит/сек
Count of elements : 16
Размер потока : 563 байт (0%)
Заголовок : English [Forced]
Язык : English
Default : Нет
Forced : Нет

Текст #2
Идентификатор : 5
Формат : UTF-8
Идентификатор кодека : S_TEXT/UTF8
Идентификатор кодека/Информация : UTF-8 Plain Text
Продолжительность : 1 ч. 33 м.
Битрейт : 48 бит/сек
Count of elements : 1139
Размер потока : 32,9 Кбайт (0%)
Заголовок : English [SDH]
Язык : English
Default : Нет
Forced : Нет




Скачать Близко через торрент https://a.radikal.ru/a31/1901/91/31adef8cc8a5.jpg Скачать, смотреть онлайн Близко бесплантно в хорошем качестве Описание: Сюжет повествует об эксперте по безопасности Сэм, которую нанимает богатая семья, чтобы она защитила Зои, избалованную наследницу ... 8.8 10 8
Торрент: Зарегистрирован [2019-02-21 08:14] · скачан: 402 раз
Статус: √ проверено
Размер: 3.07 GB
Как cкачать? Как скачать Близко через торрент | UTorrent

% Раздел Тема Автор DL S | L
Фильмы 2019-2020 [DVDrip, WEB-DLRip, HDrip] (DUB, MVO) [ 1.46 GB ] Близко / Close | HDRezka Studio | BDRip Twi7ter Скачать
1 | 0
T Фильмы (Blu-ray, BD-Remux, HDDVD) [ 14.55 GB ] Близко / Close | HDRezka Studio | 1080p sheker187 Скачать
1 | 0
Фильмы 2019-2020 [DVDrip, WEB-DLRip, HDrip] (DUB, MVO) [ 1.46 GB ] Близко / Close | HDRezka Studio | BDRip bober100 Скачать
1 | 0
Фильмы 2019-2020 [DVDrip, WEB-DLRip, HDrip] (DUB, MVO) [ 1.6 GB ] Близко / Close | HDRezka Studio | WEBRip-AVC bober100 Скачать
1 | 0

28-11-2019 20:33  


Отключить вcю реклaмy на сайте, в т.ч. и в плеере онлайн просмотра!

    Дорогой пользователь! Огромная просьба, поблагодарите релизера, оцените раздачу и оставьте свои комментарий, если Вы скачали Близко через торрент бесплатно!!
    Комментировать посты могут только пользователи прошедшие не сложную регистрацию
    Показать сообщения:    


    Близко через торрент
    Скачать бесплатно Близко
    Близко скачать торрент
    Близко смотреть онлайн
    Cкачать фильм Близко бесплатно
    Близко скачать торрент в хорошем качестве
    Близко смотреть онлайн бесплатно в хорошем качестве
    Вы не можете начинать темы
    Вы не можете отвечать на сообщения
    Вы не можете редактировать свои сообщения
    Вы не можете удалять свои сообщения
    Вы не можете голосовать в опросах
    Вы не можете прикреплять файлы к сообщениям
    Вы можете скачивать файлы
    Близко / Close [2019, боевик, триллер, WEBRip 1080p] MVO [HDRezka] смотреть онлайн, скачать торрент picoco.icu