новый адрес
Ссылка на приватное зеркало всего за 1$. Внимание количество ограничено!!!

iTunes

1+1

iTunes

мы

WEB-DL

1

iTunes

Чернобыль

iTunes

Ральф против интернета

Лицензия

ПШазам

Лицензия

Оно 2

Лицензия

30
pack

Вам бонус

ВАЖНО

!!Акция!!

Alien_RageХит недели

RePack

Resident Evil 21

ИГРА 18+

pack

RePack

jed

!!Акция!!

Alien_Rage

RePack

fifa19

RePack

Assassins Creed: Odyssey

RePack

NEED FOR SPEED™ PAYBACK

3 сезон

9 сезон

Бесстыжие 9 сезон

Все сериалы

все сериалы на PB.wtf

RePack

FAR CRY 5
Ребята, катастрофически не хватает 1900р. для оплаты серверов за Октябрь (всвязи с блокировками трафик упал в 3 раза), 1-2р., выручайте.
  

Пирсинг / Piercing (Николас Песке) [2018, ужасы, триллер, BDRip-AVC] MVO [HDRezka Studio] +DUB [iTunes] pb.wtf

Пирсинг через торрент pb.wtf

Размер: 1.66 GB | Добавлен: 9 мес. назад | Торрент скачан:110 раз
Скачать  

21-02-2019 08:33 Пирсинг Скачать торрент  

Пирсинг / Piercing«50 оттенков стали» Год выпуска: 2018
Страна: США
Жанр: ужасы, триллер
Продолжительность: 01:21:18
Перевод:

Дублированный | iTunes
Профессиональный (многоголосый) | HDRezka Studio

Субтитры: Русские (полные)

Режиссер: Николас Песке

rating

В ролях:

Кристофер Эбботт, Миа Васиковска, Лайа Коста, Оливия Бонд, Мария Диззия, Марин Айрлэнд, Дакота Лустик, Уенделл Пирс

Описание:

Рид - симпатичный парень, любящий муж и отец. Но в тихом омуте... Уже много лет он одержим желанием убить кого-нибудь ножом для колки льда. Когда наваждение становится нестерпимым, он решается прикончить проститутку. План преступления разработан до мельчайших деталей. Рид не предусмотрел только, что по его вызову приедет она, Джеки, работающая в стиле садо-мазо, сама любительница холодного оружия, немного чокнутая, но романтичная. Они встречаются... и между ними начинается смертельная игра в кошки-мышки, игра, где между любовью и ненавистью 50 миллиметров стали.

Качество: BDRip-AVC
Формат: MKV

Видео: 1024x576 (16:9), 24,000 fps, x264 ~2 347 kbps avg, 0.166 bit/pixel
Аудио#1: 48 kHz, AC3 Dolby Digital, 3/2 (L,C,R,l,r) + LFE ch, ~384.00 kbps avg | RUS (iTunes)
Аудио#2: 48 kHz, AC3 Dolby Digital, 2 (L,R) ch, ~192.00 kbps avg | RUS (HDRezka Studio)
скриншот  скриншот  скриншот  скриншот  скриншот  

Общее
Уникальный идентификатор : 73783004815831770766013375974803770539 (0x378216FF80CAB70C2E0BE02A842C0CAB)
Полное имя : F:OlLanDGroupPiercing.2018.BDRip(AVC).OlLanDGroup.mkv
Формат : Matroska
Версия формата : Version 4 / Version 2
Размер файла : 1,66 Гбайт
Продолжительность : 1 ч. 21 м.
Общий поток : 2925 Кбит/сек
Название фильма : Piercing (2018) #TorpedoUK#
Дата кодирования : UTC 2019-02-21 06:56:12
Программа кодирования : mkvmerge v29.0.0 ('Like It Or Not') 64-bit
Библиотека кодирования : libebml v1.3.6 + libmatroska v1.4.9

Видео
Идентификатор : 1
Формат : AVC
Формат/Информация : Advanced Video Codec
Профиль формата : High@L4.1
Параметр CABAC формата : Да
Параметр ReFrames формата : 10 кадров
Идентификатор кодека : V_MPEG4/ISO/AVC
Продолжительность : 1 ч. 21 м.
Битрейт : 2347 Кбит/сек
Ширина : 1024 пикселя
Высота : 576 пикселей
Соотношение сторон : 16:9
Режим частоты кадров : Постоянный
Частота кадров : 24,000 кадра/сек
Цветовое пространство : YUV
Субдискретизация насыщенности : 4:2:0
Битовая глубина : 8 бит
Тип развёртки : Прогрессивная
Бит/(Пиксели*Кадры) : 0.166
Размер потока : 1,33 Гбайт (80%)
Библиотека кодирования : x264 core 146 r2538 121396c
Настройки программы : cabac=1 / ref=10 / deblock=1:-3:-3 / analyse=0x3:0x113 / me=umh / subme=11 / psy=1 / psy_rd=0.97:0.05 / mixed_ref=1 / me_range=48 / chroma_me=1 / trellis=2 / 8x8dct=1 / cqm=0 / deadzone=21,11 / fast_pskip=1 / chroma_qp_offset=-3 / threads=6 / lookahead_threads=1 / sliced_threads=0 / nr=0 / decimate=1 / interlaced=0 / bluray_compat=0 / constrained_intra=0 / bframes=11 / b_pyramid=2 / b_adapt=2 / b_bias=0 / direct=3 / weightb=1 / open_gop=0 / weightp=2 / keyint=240 / keyint_min=24 / scenecut=40 / intra_refresh=0 / rc_lookahead=40 / rc=2pass / mbtree=0 / bitrate=2347 / ratetol=1.0 / qcomp=0.60 / qpmin=0 / qpmax=69 / qpstep=4 / cplxblur=20.0 / qblur=0.5 / vbv_maxrate=50000 / vbv_bufsize=62500 / nal_hrd=none / filler=0 / ip_ratio=1.40 / pb_ratio=1.30 / aq=1:1.00
Язык : English
Default : Да
Forced : Нет

Аудио #1
Идентификатор : 2
Формат : AC-3
Формат/Информация : Audio Coding 3
Расширение режима : CM (complete main)
Параметр Endianness формата : Big
Идентификатор кодека : A_AC3
Продолжительность : 1 ч. 21 м.
Вид битрейта : Постоянный
Битрейт : 384 Кбит/сек
Каналы : 6 каналов
Расположение каналов : Front: L C R, Side: L R, LFE
Частота : 48,0 КГц
Частота кадров : 31,250 кадров/сек (1536 spf)
Битовая глубина : 16 бит
Метод сжатия : С потерями
Размер потока : 223 Мбайт (13%)
Заголовок : DUB [iTunes]
Язык : Russian
Default : Да
Forced : Нет

Аудио #2
Идентификатор : 3
Формат : AC-3
Формат/Информация : Audio Coding 3
Расширение режима : CM (complete main)
Параметр Endianness формата : Big
Идентификатор кодека : A_AC3
Продолжительность : 1 ч. 21 м.
Вид битрейта : Постоянный
Битрейт : 192 Кбит/сек
Каналы : 2 канала
Расположение каналов : Front: L R
Частота : 48,0 КГц
Частота кадров : 31,250 кадров/сек (1536 spf)
Битовая глубина : 16 бит
Метод сжатия : С потерями
Размер потока : 112 Мбайт (7%)
Заголовок : MVO [HDRezka Studio]
Язык : Russian
Default : Нет
Forced : Нет

Текст
Идентификатор : 4
Формат : UTF-8
Идентификатор кодека : S_TEXT/UTF8
Идентификатор кодека/Информация : UTF-8 Plain Text
Продолжительность : 1 ч. 12 м.
Битрейт : 43 бит/сек
Count of elements : 608
Размер потока : 23,1 Кбайт (0%)
Заголовок : Full
Язык : Russian
Default : Нет
Forced : Нет

Меню
00:00:00.000 : en:Chapter 01
00:08:37.000 : en:Chapter 02
00:19:12.000 : en:Chapter 03
00:31:14.500 : en:Chapter 04
00:42:09.000 : en:Chapter 05
00:52:06.000 : en:Chapter 06
01:09:07.000 : en:Chapter 07

pb.wtf



Скачать Пирсинг через торрент https://i109.fastpic.ru/big/2019/0221/d4/725262b2f5bc944aee3e70796e90bfd4.jpg Скачать фильм Пирсинг через торрент бесплантно в хорошем качестве Описание: Рид - симпатичный парень, любящий муж и отец. Но в тихом омуте... Уже много лет он одержим желанием убить кого-нибудь ножом для ... 10 10 8
Торрент: Зарегистрирован [2019-02-21 08:33] · скачан: 110 раз
Статус: √ проверено
Размер: 1.66 GB
Как cкачать? Как скачать Пирсинг через торрент | qTorrent

% Раздел Тема Автор DL S | L
Фильмы 2018 [DVDrip, WEB-DLRip, HDrip] (DUB, MVO) [ 1.42 GB ] Пирсинг / Piercing [2018 BDRip] - Twi7ter Скачать
1 | 0
Фильмы 2018 [DVDrip, WEB-DLRip, HDrip] (DUB, MVO) [ 1.42 GB ] Пирсинг / Piercing [2018 BDRip] bober100 Скачать
1 | 0
Фильмы (Blu-ray, BD-Remux, HDDVD) [ 15.41 GB ] Пирсинг / Piercing [2018 BD Remux 1080p] bober100 Скачать
1 | 0
Фильмы (WEB-DL 720p, 1080p) [ 3.19 GB ] Пирсинг / Piercing [2018 WEB-DL 1080p] bober100 Скачать
1 | 0
Разное [ 123 MB ] Экстремальный пирсинг [Bizarre Piercing Freak Gape; CamRip] sniff Скачать
1 | 0

28-11-2019 20:33  

Отключить всю рекламу на сайте

    Дорогой пользователь! Огромная просьба, поблагодарите релизера, оцените раздачу и оставьте свои комментарий, если Вы скачали Пирсинг через торрент бесплатно! Внесите свою лепту в развитие PiratBit!
    Комментировать посты могут только пользователи прошедшие не сложную регистрацию
    Показать сообщения:    

    Пирсинг через торрент
    Скачать бесплатно Пирсинг
    Пирсинг скачать торрент
    Пирсинг смотреть онлайн
    Cкачать фильм Пирсинг бесплатно
    Пирсинг скачать торрент в хорошем качестве
    Пирсинг смотреть онлайн бесплатно в хорошем качестве


    Вы не можете начинать темы
    Вы не можете отвечать на сообщения
    Вы не можете редактировать свои сообщения
    Вы не можете удалять свои сообщения
    Вы не можете голосовать в опросах
    Вы не можете прикреплять файлы к сообщениям
    Вы можете скачивать файлы