новый адрес
Ссылка на приватное зеркало всего за 1$. Внимание количество ограничено!!!

iTunes

1+1

iTunes

мы

iTunes

1

iTunes

Чернобыль

iTunes

Ральф против интернета

Лицензия

ПШазам

Лицензия

Оно 2

Лицензия

30
pack

Вам бонус

ВАЖНО

!!Акция!!

Alien_RageХит недели

RePack

Resident Evil 21

ИГРА 18+

pack

RePack

jed

!!Акция!!

Alien_Rage

RePack

fifa19

RePack

Assassins Creed: Odyssey

RePack

NEED FOR SPEED™ PAYBACK

3 сезон

9 сезон

Бесстыжие 9 сезон

Все сериалы

все сериалы на PB.wtf

RePack

FAR CRY 5
Ребята, катастрофически не хватает 1900р. для оплаты серверов за Октябрь (всвязи с блокировками трафик упал в 3 раза), 1-2р., выручайте.
  

Трамвай в другие города (Юлий Файт) [1962, СССР, короткометражка, детский, SATRip от AVP Studio] pb.wtf

Трамвай в другие города через торрент pb.wtf

Размер: 373 MB | Добавлен: 9 мес. назад | Торрент скачан:5 раз
Скачать  

21-02-2019 09:59 Трамвай в другие города Скачать торрент  

Трамвай в другие города
Страна: СССР
Производство: Мосфильм

Жанр: короткометражка, детский
Год выпуска: 1962
Продолжительность: 00:20:34

Перевод: Не требуется
Cубтитры: нет
Оригинальная аудиодорожка: русский

Режиссер: Юлий Файт

В ролях:
Андрюша Титов, Женя Богданов, Юрий Белов...
Об актёрах подробней

Описание:
Два дошкольника решили, что ночью трамваи уезжают куда-то отдыхать и если сесть поздним вечером в трамвай, то можно уехать в другой город. В трамвае они встретились с различными людьми, и все оказывались интересными. Интересно было также наблюдать за жизнью большого города, сверкавшего вечерними огнями.

Исходник: DVB
Качество видео: SATRip
Формат видео: AVI

Видео: 704x528 (4:3), 25,000 кадров/сек, XviD ~ 2332 kbps avg, 0.251 bit/pixel
Аудио: 48 kHz, Dolby Digital AC3 2.0, 192 kbps

Раздача от:
Общее
Полное имя : Tramvay.v.drugie.goroda.1962.SATRip_[New-team]_by_AVP_Studio.avi
Формат : AVI
Формат/Информация : Audio Video Interleave
Размер файла : 373 Мбайт
Продолжительность : 20 м. 34 с.
Общий поток : 2533 Кбит/сек
Программа кодирования : VirtualDubMod 1.5.10.3 | www.virtualdub-fr.org || (build 2550/release)
Библиотека кодирования : VirtualDubMod build 2550/release

Видео
Идентификатор : 0
Формат : MPEG-4 Visual
Профиль формата : Advanced Simple@L5
Настройки формата : BVOP1 / Custom Matrix
Параметр BVOP формата : 1
Параметр QPel формата : Нет
Параметр GMC формата : Без точки перехода
Параметр матрицы формата : Выборочная
Идентификатор кодека : XVID
Идентификатор кодека/Подсказка : XviD
Продолжительность : 20 м. 34 с.
Битрейт : 2332 Кбит/сек
Ширина : 704 пикселя
Высота : 528 пикселей
Соотношение сторон : 4:3
Частота кадров : 25,000 кадров/сек
Цветовое пространство : YUV
Субдискретизация насыщенности : 4:2:0
Битовая глубина : 8 бит
Тип развёртки : Прогрессивная
Метод сжатия : С потерями
Бит/(Пиксели*Кадры) : 0.251
Размер потока : 343 Мбайт (92%)
Библиотека кодирования : XviD 73

Аудио
Идентификатор : 1
Формат : AC-3
Формат/Информация : Audio Coding 3
Коммерческое название : Dolby Digital
Идентификатор кодека : 2000
Продолжительность : 20 м. 34 с.
Вид битрейта : Постоянный
Битрейт : 192 Кбит/сек
Каналы : 2 канала
Channel layout : L R
Частота : 48,0 КГц
Частота кадров : 31,250 кадров/сек (1536 SPF)
Битовая глубина : 16 бит
Метод сжатия : С потерями
Размер потока : 28,2 Мбайт (8%)
Выравнивание : Разделение по промежуткам
Продолжительность промежутка : 40 мс. (1,00 видеокадр)
Время предзагрузки промежутка : 500 мс
pb.wtf



Скачать Трамвай в другие города через торрент http://picplus.ru/img/1902/21/54dbaad5.png Скачать фильм Трамвай в другие города через торрент бесплантно в хорошем качестве Описание:Два дошкольника решили, что ночью трамваи уезжают куда-то отдыхать и если сесть поздним вечером в трамвай, то можно уехать в ... 9 10 1
Торрент: Зарегистрирован [2019-02-21 09:59] · скачан: 5 раз
Статус: √ проверено
Размер: 373 MB
Как cкачать? Как скачать Трамвай в другие города через торрент | qTorrent

% Раздел Тема Автор DL S | L
Кино СССР [ 372 MB ] Трамвай в другие города [1962 СССР короткометражка детский SATRip-AVC от AVP Studio] AVP Studio Скачать
1 | 0
    Дорогой пользователь! Огромная просьба, поблагодарите релизера, оцените раздачу и оставьте свои комментарий, если Вы скачали Трамвай в другие города через торрент бесплатно! Внесите свою лепту в развитие PiratBit!
    Комментировать посты могут только пользователи прошедшие не сложную регистрацию
    Показать сообщения:    

    Трамвай в другие города через торрент
    Скачать бесплатно Трамвай в другие города
    Трамвай в другие города скачать торрент
    Трамвай в другие города смотреть онлайн
    Cкачать фильм Трамвай в другие города бесплатно
    Трамвай в другие города скачать торрент в хорошем качестве
    Трамвай в другие города смотреть онлайн бесплатно в хорошем качестве


    Вы не можете начинать темы
    Вы не можете отвечать на сообщения
    Вы не можете редактировать свои сообщения
    Вы не можете удалять свои сообщения
    Вы не можете голосовать в опросах
    Вы не можете прикреплять файлы к сообщениям
    Вы можете скачивать файлы