Достать ножи: Стеклянная луковица

MVO

Добыча

Дубляж

Уэнсдэй

1 сезон

Тор

Дубляж

13 клиническая

1 сезон

Жестокая ночь

MVO

Одни из нас

1 сезон

Deluxe

pack

Рекомендуем

30

Пиратка

ВАЖНО

ВАЖНО

Ghostwire

Пиратка

jed

RePack

nioh2

RePack

RDR2

RePack

NEED FOR SPEED™ PAYBACK

RePack

скачать торрент

Кинопоиск HD

Острые козырьки 6 сезон

6 сезон

FAR CRY 6

RePack

скачать торрент

Лицензия

скачать торрент

MVO

1

1 сезон

скачать торрент

1 сезон

скачать торрент

Лицензия

  

Ничего хорошего в отеле «Эль рояль» / Bad Times at the El Royale (Дрю Годдард) [2018, триллер, драма, криминал, BDRip 1080p, 60 fps] Дубляж [iTunes]

Ничего хорошего в отеле «Эль рояль» через торрент pb.wtf

Размер: 19.98 GB | Добавлен: 3 года 11 мес. назад | Торрент скачан:57 раз
Смотреть онлайн | Скачать | Поддержите нас   

21-02-2019 15:43 Ничего хорошего в отеле «Эль рояль» Скачать торрент  

Ничего хорошего в отеле «Эль рояль» / Bad Times at the El Royale


Год выпуска: 2018
Страна: США
Жанр: триллер, драма, криминал, детектив
Продолжительность: 02:21:37
Перевод: Дублированный
Субтитры: Английские
Режиссер: Дрю Годдард
В ролях:

Джефф Бриджес (Father Daniel Flynn / Dock O'Kelly), Синтиа Эриво (Darlene Sweet), Дакота Джонсон (Emily Summerspring), Джон Хэмм (Laramie Seymour Sullivan / Dwight Broadbeck), Крис Хемсворт (Billy Lee), Кэйли Спэни (Rose Summerspring), Льюис Пуллман (Miles Miller), Ник Офферман (Felix O'Kelly), Ксавье Долан (Buddy Sunday), Шей Уигэм (Dr. Woodbury Laurence), Марк О’Брайэн (Larsen Rogers), Чарльз Халфорд (Sammy Wilds)
Описание:
Семь незнакомцев, у каждого из которых есть своя тайна, встречаются в заброшенном отеле «Эль Рояль» на озере Тахо. И этой ночью у каждого будет шанс на искупление... прежде чем всё пойдет к чертям.
Рейтинг:

MPAA: R - Лицам до 17 лет обязательно присутствие взрослого
Качество: BDRip 1080p / 60 fps
Формат: MKV
Видео: 1920 x 800 | 59.940 fps | 17.7 Мбит/сек
Аудио #1: AC-3| 5.1 | 48 kHz | 448 Кбит/сек | 16 bit | Дубляж (iTunes) | RUS
Аудио #2: DTS-HD MA| 5.1 | 48 kHz | 1509 Кбит/сек | 24 bit | Оригинал | ENG
Навигация по главам: есть

D:\2018 Ничего хорошего в отеле «Эль рояль» BDRip 1080p 60 fps.mkv
General
Unique ID : 145935348083362547287827421813731184531 (0x6DCA202CAF3F25264A5A18BEB1D74F93)
Complete name : D:\2018 Ничего хорошего в отеле «Эль рояль» BDRip 1080p 60 fps.mkv
Format : Matroska
Format version : Version 4 / Version 2
File size : 20.0 GiB
Duration : 2h 21mn
Overall bit rate mode : Variable
Overall bit rate : 20.2 Mbps
Movie name : Ничего хорошего в отеле «Эль рояль» / Bad Times at the El Royale (2018)
Encoded date : UTC 2019-01-13 14:00:05
Writing application : mkvmerge v22.0.0 ('At The End Of The World') 64-bit
Writing library : libebml v1.3.5 + libmatroska v1.4.8
DURATION : 02:13:07.181000000
NUMBER_OF_FRAMES : 1467
NUMBER_OF_BYTES : 41422
_STATISTICS_WRITING_APP : mkvmerge v22.0.0 ('At The End Of The World') 64-bit
_STATISTICS_WRITING_DATE_UTC : 2019-01-13 14:00:05
_STATISTICS_TAGS : BPS DURATION NUMBER_OF_FRAMES NUMBER_OF_BYTES
Video #1
ID : 1
Format : AVC
Format/Info : Advanced Video Codec
Format profile : [email protected]
Format settings, CABAC : Yes
Format settings, ReFrames : 5 frames
Codec ID : V_MPEG4/ISO/AVC
Duration : 2h 21mn
Bit rate : 17.7 Mbps
Nominal bit rate : 15.0 Mbps
Width : 1 920 pixels
Height : 800 pixels
Display aspect ratio : 2.40:1
Frame rate : 59.940 fps
Color space : YUV
Chroma subsampling : 4:2:0
Bit depth : 8 bits
Scan type : Progressive
Bits/(Pixel*Frame) : 0.193
Stream size : 17.6 GiB (88%)
Writing library : x264 core 146 r2538 121396c
Encoding settings : cabac=1 / ref=5 / deblock=1:-2:-2 / analyse=0x3:0x113 / me=umh / subme=9 / psy=1 / psy_rd=1.00:0.25 / mixed_ref=1 / me_range=32 / chroma_me=1 / trellis=2 / 8x8dct=1 / cqm=0 / deadzone=6,6 / fast_pskip=1 / chroma_qp_offset=-4 / threads=12 / lookahead_threads=2 / sliced_threads=0 / nr=0 / decimate=0 / interlaced=0 / bluray_compat=0 / constrained_intra=0 / bframes=3 / b_pyramid=2 / b_adapt=2 / b_bias=0 / direct=3 / weightb=1 / open_gop=0 / weightp=2 / keyint=600 / keyint_min=60 / scenecut=40 / intra_refresh=0 / rc_lookahead=60 / rc=2pass / mbtree=1 / bitrate=15000 / ratetol=1.0 / qcomp=0.80 / qpmin=0 / qpmax=69 / qpstep=4 / cplxblur=20.0 / qblur=0.5 / vbv_maxrate=50000 / vbv_bufsize=50000 / nal_hrd=none / filler=0 / ip_ratio=1.10 / aq=1:0.50
Language : English
Default : Yes
Forced : No
DURATION : 02:21:37.840000000
NUMBER_OF_FRAMES : 509361
NUMBER_OF_BYTES : 15895414984
_STATISTICS_WRITING_APP : mkvmerge v22.0.0 ('At The End Of The World') 64-bit
_STATISTICS_WRITING_DATE_UTC : 2019-01-13 14:00:05
_STATISTICS_TAGS : BPS DURATION NUMBER_OF_FRAMES NUMBER_OF_BYTES
Audio #2
ID : 2
Format : AC-3
Format/Info : Audio Coding 3
Mode extension : CM (complete main)
Format settings, Endianness : Big
Codec ID : A_AC3
Duration : 2h 21mn
Bit rate mode : Constant
Bit rate : 448 Kbps
Channel(s) : 6 channels
Channel positions : Front: L C R, Side: L R, LFE
Sampling rate : 48.0 KHz
Bit depth : 16 bits
Compression mode : Lossy
Stream size : 454 MiB (2%)
Title : Дубляж
Language : Russian
Default : Yes
Forced : Yes
DURATION : 02:21:37.910000000
NUMBER_OF_FRAMES : 796679
NUMBER_OF_BYTES : 5075082548
_STATISTICS_WRITING_APP : mkvmerge v22.0.0 ('At The End Of The World') 64-bit
_STATISTICS_WRITING_DATE_UTC : 2019-01-13 14:00:05
_STATISTICS_TAGS : BPS DURATION NUMBER_OF_FRAMES NUMBER_OF_BYTES
Audio #3
ID : 3
Format : DTS
Format/Info : Digital Theater Systems
Format profile : MA / Core
Codec ID : A_DTS
Duration : 2h 21mn
Bit rate mode : Variable
Bit rate : 1 597 Kbps / 1 510 Kbps
Channel(s) : 8 channels / 6 channels
Channel positions : Front: L C R, Side: L R, Back: L R, LFE / Front: L C R, Side: L R, LFE
Sampling rate : 48.0 KHz
Bit depth : 24 bits
Compression mode : Lossless / Lossy
Title : Оригинал
Language : English
Default : No
Forced : No
Text #4
ID : 4
Format : UTF-8
Codec ID : S_TEXT/UTF8
Codec ID/Info : UTF-8 Plain Text
Title : Full
Language : English
Default : No
Forced : No
Menu
00:00:00.000 : en:Chapter 1
00:04:19.592 : en:Chapter 2
00:19:21.994 : en:Chapter 3
00:34:32.779 : en:Chapter 4
00:49:24.711 : en:Chapter 5
00:51:19.868 : en:Chapter 6
01:16:01.473 : en:Chapter 7
01:37:13.369 : en:Chapter 8
02:03:56.720 : en:Chapter 9
02:14:09.041 : en:Chapter 10
02:15:45.428 : en:Chapter 11
скриншот   скриншот   скриншот   скриншот  



Скачать Ничего хорошего в отеле «Эль рояль» через торрент https://c.radikal.ru/c25/1902/88/da2805693830.png Скачать, смотреть онлайн Ничего хорошего в отеле «Эль рояль» бесплантно в хорошем качестве Описание: Семь незнакомцев, у каждого из которых есть своя тайна, встречаются в заброшенном отеле «Эль Рояль» на озере Тахо. И этой ночью у ... 10 10 5
Торрент: Зарегистрирован [2019-02-21 15:43] · скачан: 57 раз
Статус: √ проверено
Размер: 19.98 GB
Как cкачать? Как скачать Ничего хорошего в отеле «Эль рояль» через торрент | UTorrent

% Раздел Тема Автор DL S | L
Ultra HD (UHD: 2K, 4K, 8K) [ 31.2 GB ] Ничего хорошего в отеле «Эль рояль» / Bad Times at the El Royale | Лицензия | 2160p sheker187 Скачать
1 | 0
Фильмы 2018 [DVDrip, WEB-DLRip, HDrip] (DUB, MVO) [ 1.46 GB ] Ничего хорошего в отеле «Эль рояль» / Bad Times at the El Royale | Лицензия | BDRip Twi7ter Скачать
1 | 0
Фильмы [HD 720p, 1080p] (Хороший звук DUB, MVO) [ 15.35 GB ] Ничего хорошего в отеле «Эль рояль» / Bad Times at the El Royale | Лицензия | 1080p sheker187 Скачать
1 | 0
Ultra HD (UHD: 2K, 4K, 8K) [ 56.4 GB ] Ничего хорошего в отеле «Эль рояль» / Bad Times at the El Royale | DUB + MVO + AVO | 2160p sheker187 Скачать
1 | 0
Фильмы 2018 [DVDrip, WEB-DLRip, HDrip] (DUB, MVO) [ 1.46 GB ] Ничего хорошего в отеле «Эль рояль» / Bad Times at the El Royale | Лицензия BD EUR | BDRip-AVC Skandar2019 Скачать
1 | 0
Ultra HD (UHD: 2K, 4K, 8K) [ 56.41 GB ] Ничего хорошего в отеле «Эль рояль» / Bad Times at the El Royale | Лицензия | 2160p sheker187 Скачать
1 | 0
Ultra HD (UHD: 2K, 4K, 8K) [ 19.85 GB ] Ничего хорошего в отеле «Эль рояль» / Bad Times at the El Royale | Лицензия | 2160p sheker187 Скачать
1 | 0

28-11-2019 20:33  


Отключить вcю реклaмy на сайте, в т.ч. и в плеере онлайн просмотра!

22-02-2019 16:26 Ничего хорошего в отеле «Эль рояль» Скачать торрент  

Фигня редкостная,зря время потратил!!!



    Дорогой пользователь! Огромная просьба, поблагодарите релизера, оцените раздачу и оставьте свои комментарий, если Вы скачали Ничего хорошего в отеле «Эль рояль» через торрент бесплатно!!
    Комментировать посты могут только пользователи прошедшие не сложную регистрацию
    Показать сообщения:    


    Ничего хорошего в отеле «Эль рояль» через торрент
    Скачать бесплатно Ничего хорошего в отеле «Эль рояль»
    Ничего хорошего в отеле «Эль рояль» скачать торрент
    Ничего хорошего в отеле «Эль рояль» смотреть онлайн
    Cкачать фильм Ничего хорошего в отеле «Эль рояль» бесплатно
    Ничего хорошего в отеле «Эль рояль» скачать торрент в хорошем качестве
    Ничего хорошего в отеле «Эль рояль» смотреть онлайн бесплатно в хорошем качестве
    Вы не можете начинать темы
    Вы не можете отвечать на сообщения
    Вы не можете редактировать свои сообщения
    Вы не можете удалять свои сообщения
    Вы не можете голосовать в опросах
    Вы не можете прикреплять файлы к сообщениям
    Вы можете скачивать файлы
    Ничего хорошего в отеле «Эль рояль» / Bad Times at the El Royale [2018, триллер, драма, криминал, BDRip 1080p, 60 fps] Дубляж [iTunes] смотреть онлайн, скачать торрент picoco.icu