2 сезон

iTunes

MVO

1

2 сезон

iTunes

iTunes

1 сезон

RePack

30

Новинка

ВАЖНО

ИГРА 18+

pack

RePack

MK11
pack

Легкие деньги

RePack

jed

RePack

fifa19

RePack

RDR2

RePack

NEED FOR SPEED™ PAYBACK

4 сезон

9 сезон

Бесстыжие 9 сезон

Все сериалы

все сериалы на PB.wtf

RePack

FAR CRY 5

Anonymous, доброе утро, мы не успеваем собрать деньги на оплату серверов за декабрь и январь, помогите нам пожалуйста в это трудное время. В качестве благодарности мы отключим Вам всю рекламу на сайте (укажите свой ник в строку Ваше имя)!

×
  
Magnet ссылка

Проклятие Аннабель: Зарождение зла / Annabelle: Creation (Дэвид Ф. Сандберг) [2017, ужасы, триллер, детектив, BDRip 1080p, 60 fps] Дубляж [iTunes] pb.wtf

Проклятие Аннабель: Зарождение зла через торрент pb.wtf

Качают: 1 [ 0 KB/s ]
Размер: 18.26 GB | Добавлен: 1 год 11 мес. назад | Торрент скачан:0 раз
Скачать  

21-02-2019 15:49 Проклятие Аннабель: Зарождение зла Скачать торрент  

Проклятие Аннабель: Зарождение зла / Annabelle: Creation«Новый ужас вселенной 'Заклятия'»


Год выпуска: 2017
Страна: США
Жанр: ужасы, триллер, детектив
Продолжительность: 01:49:43
Перевод: Дублированный | iTunes
Субтитры: Русские (forced, full), английские
Режиссер: Дэвид Ф. Сандберг
В ролях:

Энтони ЛаПалья (Samuel Mullins), Самара Ли (Bee), Миранда Отто (Esther Mullins), Брэд Гринквист (Victor Palmeri), Лулу Уилсон (Linda), Талита Бейтман (Janice), Стефани Сигман (Sister Charlotte), Марк Брэмхолл (Father Massey), Грэйс Фултон (Carol), Филиппа Култхард (Nancy), Тайлер Бак (Kate), Lou Lou Safran (Tierney)
Описание:
Через несколько лет после трагической гибели маленькой дочери кукольник и его жена приглашают в свой дом монахиню и нескольких девочек из приюта, вскоре становящихся мишенью для одержимого создания кукольника - Аннабель.
Рейтинг:

MPAA: R - Лицам до 17 лет обязательно присутствие взрослого
Качество: BDRip 1080p / 60 fps
Формат: MKV
Видео: MPEG-4 AVC | 1920 x 800 | 59.940 fps | 23.0 Мбит/сек
Аудио #1: AC3 | 5.1 | 48 kHz | 384 kbps | 16 bit | Дубляж - iTunes | RUS
Аудио #2: AC-3| 5.1 | 48 kHz | 448 Кбит/сек | 16 bit | Оригинал | ENG
Навигация по главам: Есть


D:\2017 Проклятье Анабель BDRip 1080p 60 fps.mkv
General
Unique ID : 249825458640881498874429614126978173925 (0xBBF2A217361170609E47ACF5D4AE0BE5)
Complete name : D:\2017 Проклятье Анабель BDRip 1080p 60 fps.mkv
Format : Matroska
Format version : Version 4 / Version 2
File size : 18.3 GiB
Duration : 1h 49mn
Overall bit rate : 23.8 Mbps
Movie name : Проклятие Аннабель: Зарождение зла / Annabelle: Creation (2017) BDRip 1080p | 60 fps
Encoded date : UTC 2017-10-22 06:44:08
Writing application : mkvmerge v7.6.0 ('Garden of Dreams') 32bit built on Feb 8 2015 12:51:39
Writing library : libebml v1.3.1 + libmatroska v1.4.2
DURATION : 01:46:40.759000000
NUMBER_OF_FRAMES : 1012
NUMBER_OF_BYTES : 64953
_STATISTICS_WRITING_APP : mkvmerge v7.6.0 ('Garden of Dreams') 32bit built on Feb 8 2015 12:51:39
_STATISTICS_WRITING_DATE_UTC : 2017-10-22 06:44:08
_STATISTICS_TAGS : BPS DURATION NUMBER_OF_FRAMES NUMBER_OF_BYTES
Attachment : Yes
Video #1
ID : 1
Format : AVC
Format/Info : Advanced Video Codec
Format profile : High@L4.1
Format settings, CABAC : Yes
Format settings, ReFrames : 5 frames
Codec ID : V_MPEG4/ISO/AVC
Duration : 1h 49mn
Bit rate : 23.0 Mbps
Width : 1 920 pixels
Height : 800 pixels
Display aspect ratio : 2.40:1
Frame rate : 59.940 fps
Color space : YUV
Chroma subsampling : 4:2:0
Bit depth : 8 bits
Scan type : Progressive
Bits/(Pixel*Frame) : 0.250
Stream size : 17.3 GiB (95%)
Writing library : x264 core 148 r2744 b97ae06
Encoding settings : cabac=1 / ref=5 / deblock=1:-3:-3 / analyse=0x3:0x113 / me=umh / subme=8 / psy=1 / psy_rd=1.00:0.25 / mixed_ref=1 / me_range=32 / chroma_me=1 / trellis=1 / 8x8dct=1 / cqm=0 / deadzone=6,6 / fast_pskip=1 / chroma_qp_offset=-4 / threads=12 / lookahead_threads=2 / sliced_threads=0 / nr=0 / decimate=0 / interlaced=0 / bluray_compat=0 / constrained_intra=0 / bframes=3 / b_pyramid=2 / b_adapt=1 / b_bias=0 / direct=3 / weightb=1 / open_gop=0 / weightp=2 / keyint=599 / keyint_min=59 / scenecut=40 / intra_refresh=0 / rc_lookahead=50 / rc=2pass / mbtree=1 / bitrate=22999 / ratetol=1.0 / qcomp=0.80 / qpmin=0 / qpmax=69 / qpstep=4 / cplxblur=20.0 / qblur=0.5 / vbv_maxrate=62500 / vbv_bufsize=78125 / nal_hrd=none / filler=0 / ip_ratio=1.10 / aq=1:0.50
Default : Yes
Forced : No
Audio #2
ID : 2
Format : AC-3
Format/Info : Audio Coding 3
Mode extension : CM (complete main)
Format settings, Endianness : Big
Codec ID : A_AC3
Duration : 1h 49mn
Bit rate mode : Constant
Bit rate : 384 Kbps
Channel(s) : 6 channels
Channel positions : Front: L C R, Side: L R, LFE
Sampling rate : 48.0 KHz
Bit depth : 16 bits
Compression mode : Lossy
Stream size : 301 MiB (2%)
Title : Dub [iTunes]
Language : Russian
Default : Yes
Forced : No
Audio #3
ID : 3
Format : AC-3
Format/Info : Audio Coding 3
Mode extension : CM (complete main)
Format settings, Endianness : Big
Codec ID : A_AC3
Duration : 1h 49mn
Bit rate mode : Constant
Bit rate : 448 Kbps
Channel(s) : 6 channels
Channel positions : Front: L C R, Side: L R, LFE
Sampling rate : 48.0 KHz
Bit depth : 16 bits
Compression mode : Lossy
Stream size : 352 MiB (2%)
Language : English
Default : No
Forced : No
Text #4
ID : 4
Format : UTF-8
Codec ID : S_TEXT/UTF8
Codec ID/Info : UTF-8 Plain Text
Title : Forced
Language : Russian
Default : Yes
Forced : No
Text #5
ID : 5
Format : UTF-8
Codec ID : S_TEXT/UTF8
Codec ID/Info : UTF-8 Plain Text
Title : Full
Language : Russian
Default : No
Forced : No
Text #6
ID : 6
Format : UTF-8
Codec ID : S_TEXT/UTF8
Codec ID/Info : UTF-8 Plain Text
Title : Full
Language : English
Default : No
Forced : No
Text #7
ID : 7
Format : UTF-8
Codec ID : S_TEXT/UTF8
Codec ID/Info : UTF-8 Plain Text
Title : SDH
Language : English
Default : No
Forced : No
Text #8
ID : 8
Format : UTF-8
Codec ID : S_TEXT/UTF8
Codec ID/Info : UTF-8 Plain Text
Title : SDH Colored
Language : English
Default : No
Forced : No
Menu
00:00:00.000 : en:Chapter 1
00:11:25.351 : en:Chapter 2
00:20:35.067 : en:Chapter 3
00:30:33.290 : en:Chapter 4
00:42:03.604 : en:Chapter 5
00:52:39.239 : en:Chapter 6
01:03:12.497 : en:Chapter 7
01:13:14.682 : en:Chapter 8
01:23:55.614 : en:Chapter 9
01:33:19.302 : en:Chapter 10
01:43:27.618 : en:Chapter 11
скриншот   скриншот   скриншот   скриншот   скриншот  
pb.wtf



Скачать Проклятие Аннабель: Зарождение зла через торрент https://c.radikal.ru/c03/1902/f7/da04a187c780.png Скачать фильм Проклятие Аннабель: Зарождение зла через торрент бесплантно в хорошем качестве Описание: Через несколько лет после трагической гибели маленькой дочери кукольник и его жена приглашают в свой дом монахиню и нескольких ... 9.8 10 6
Торрент: Зарегистрирован [2019-02-21 15:49] · скачан: 0 раз
Статус: T временная
Размер: 18.26 GB
Как cкачать? Как скачать Проклятие Аннабель: Зарождение зла через торрент | UTorrent

% Раздел Тема Автор DL S | L
Фильмы (Blu-ray, BD-Remux, HDDVD) [ 24.54 GB ] Проклятие Аннабель: Зарождение зла / Annabelle: Creation [2017 BD Remux 1080p] DUB [] bober100 Скачать
1 | 0
Фильмы [HD 720p, 1080p] (Хороший звук DUB, MVO) [ 2.87 GB ] Проклятие Аннабель: Зарождение зла / Annabelle: Creation [2017 BDRip 720p] sokol_ok Скачать
1 | 0
Фильмы 2017 [DVDrip, WEB-DLRip, HDrip] (DUB, MVO) [ 746 MB ] Проклятие Аннабель: Зарождение зла / Annabelle: Creation [2017 BDRip-AVC] sokol_ok Скачать
2 | 0
Фильмы 2017 [DVDrip, WEB-DLRip, HDrip] (DUB, MVO) [ 1.48 GB ] Проклятие Аннабель: Зарождение зла / Annabelle: Creation [2017 BDRip-AVC] sokol_ok Скачать
2 | 0
Видео для КПК и Смартфонов [ 420 MB ] Проклятие Аннабель: Зарождение зла / Annabelle: Creation [2017 HDRip КПК] DUB [] bober100 Скачать
1 | 0
Фильмы 2017 [DVDrip, WEB-DLRip, HDrip] (DUB, MVO) [ 2.17 GB ] Проклятие Аннабель: Зарождение зла / Annabelle: Creation [2017 HDRip "BD EUR"] coc900 Скачать
1 | 1
Фильмы 2017 [DVDrip, WEB-DLRip, HDrip] (DUB, MVO) [ 1.46 GB ] Проклятие Аннабель: Зарождение зла / Annabelle: Creation [2017 BDRip] - [] Twi7ter Скачать
1 | 0

28-11-2019 20:33  

Отключить всю рекламу на сайте

    Дорогой пользователь! Огромная просьба, поблагодарите релизера, оцените раздачу и оставьте свои комментарий, если Вы скачали Проклятие Аннабель: Зарождение зла через торрент бесплатно! Внесите свою лепту в развитие PiratBit!
    Комментировать посты могут только пользователи прошедшие не сложную регистрацию
    Показать сообщения:    

    Проклятие Аннабель: Зарождение зла через торрент
    Скачать бесплатно Проклятие Аннабель: Зарождение зла
    Проклятие Аннабель: Зарождение зла скачать торрент
    Проклятие Аннабель: Зарождение зла смотреть онлайн
    Cкачать фильм Проклятие Аннабель: Зарождение зла бесплатно
    Проклятие Аннабель: Зарождение зла скачать торрент в хорошем качестве
    Проклятие Аннабель: Зарождение зла смотреть онлайн бесплатно в хорошем качестве


    Вы не можете начинать темы
    Вы не можете отвечать на сообщения
    Вы не можете редактировать свои сообщения
    Вы не можете удалять свои сообщения
    Вы не можете голосовать в опросах
    Вы не можете прикреплять файлы к сообщениям
    Вы можете скачивать файлы