MEGA SALE -50% FORZA HORIZON 4 ULTIMATE+ВСЕ DLC+ОНЛАЙН всего за 599р. 299 руб. (супер цена). Внимание количество ограничено!!!

iTunes

1+1

iTunes

мы

iTunes

1

iTunes

Чернобыль

iTunes

Ральф против интернета

Лицензия

ПШазам

Лицензия

Игра престолов

Лицензия

30
pack

ВАЖНО

!!Акция!!

Alien_RageХит недели

RePack

Resident Evil 21

ИГРА 18+

pack

RePack

Metro:Exodus

!!Акция!!

Alien_Rage

RePack

fifa19

RePack

Assassins Creed: Odyssey

RePack

NEED FOR SPEED™ PAYBACK

3 сезон

9 сезон

Бесстыжие 9 сезон

Все сериалы

все сериалы на PB.wtf

RePack

FAR CRY 5
Ребята, катастрофически не хватает 7730р. для оплаты серверов за АВГУСТ (всвязи с блокировками трафик упал в 3 раза), 1-2р., выручайте.
  

Поиск / Searching (Аниш Чаганти) [2018, триллер, драма, детектив, BDRip 720p, 60 fps] [Локализованная версия] Дубляж [iTunes] pb.wtf

Поиск через торрент pb.wtf

Размер: 7.28 GB | Добавлен: 6 мес. назад | Торрент скачан:79 раз
Скачать  

21-02-2019 16:18 Поиск Скачать торрент  

Поиск / Searching«He just missed his daughter's final call»


Год выпуска: 2018
Страна: Россия, США
Жанр: триллер, драма, детектив
Продолжительность: 01:42:21
Перевод: Дублированный | iTunes
Cубтитры: Отсуствуют
Режиссер: Аниш Чаганти
В ролях:

Джон Чо (David Kim), Сара Сон (Pamela Nam Kim), Алекс Джейн Гоу (Young Margot (5 yrs)), Меган Лью (Young Margot (7 yrs)), Кайя Доун Лау (Young Margot (9 yrs)), Мишель Ла (Margot), Джозеф Ли (Peter), Доминик Хоффман (Michael Porter), Сильвия Минасян (Mrs. Shahinian, озвучка), Мелисса Дисней (Isaac's Mom, озвучка), Коннор Макрэйт (Isaac), Колин Вуделл (911 Operator, озвучка)
Описание:
16-летняя дочь Дэвида Кима пропадает без следа. Чтобы дать полиции зацепки, отчаявшийся отец взламывает компьютер девочки, и понимает, что он ничего не знает о собственной дочери.
Рейтинг:

MPAA: PG-13 - Детям до 13 лет просмотр не желателен
Качество: BDRip 720p / 60 fps
Формат: MKV
Видео: MPEG-4 AVC | 1280 x 720 | 59.940 fps | 10.0 Мбит/сек
Аудио: AC-3 | 5.1 | 48 kHz | 384 kbps | 16 bit | Дубляж (iTunes) | RUS
Навигация по главам: есть
E:\2018 Поиск BDRip 720p 60 fps.mkv
General
Unique ID : 272593355763768742641310780938053074467 (0xCD139216291FA02D15BF0E6274C1BE23)
Complete name : E:\2018 Поиск BDRip 720p 60 fps.mkv
Format : Matroska
Format version : Version 4 / Version 2
File size : 7.28 GiB
Duration : 1h 42mn
Overall bit rate : 10.2 Mbps
Movie name : Поиск / SEARCHING
Encoded date : UTC 2018-11-17 20:56:09
Writing application : mkvmerge v22.0.0 ('At The End Of The World') 64-bit
Writing library : libebml v1.3.5 + libmatroska v1.4.8
DURATION : 01:42:21.472000000
NUMBER_OF_FRAMES : 191921
NUMBER_OF_BYTES : 294790656
_STATISTICS_WRITING_APP : mkvmerge v22.0.0 ('At The End Of The World') 64-bit
_STATISTICS_WRITING_DATE_UTC : 2018-11-17 20:56:09
_STATISTICS_TAGS : BPS DURATION NUMBER_OF_FRAMES NUMBER_OF_BYTES
Video #1
ID : 1
Format : AVC
Format/Info : Advanced Video Codec
Format profile : High@L4.1
Format settings, CABAC : Yes
Format settings, ReFrames : 8 frames
Codec ID : V_MPEG4/ISO/AVC
Duration : 1h 42mn
Bit rate : 10 000 Kbps
Width : 1 280 pixels
Height : 720 pixels
Display aspect ratio : 16:9
Frame rate mode : Variable
Frame rate : 59.940 fps
Color space : YUV
Chroma subsampling : 4:2:0
Bit depth : 8 bits
Scan type : Progressive
Bits/(Pixel*Frame) : 0.181
Stream size : 6.86 GiB (94%)
Writing library : x264 core 146 r2538 121396c
Encoding settings : cabac=1 / ref=8 / deblock=1:-2:-2 / analyse=0x3:0x113 / me=umh / subme=9 / psy=1 / psy_rd=1.00:0.25 / mixed_ref=1 / me_range=32 / chroma_me=1 / trellis=2 / 8x8dct=1 / cqm=0 / deadzone=6,6 / fast_pskip=1 / chroma_qp_offset=-4 / threads=12 / lookahead_threads=2 / sliced_threads=0 / nr=0 / decimate=0 / interlaced=0 / bluray_compat=0 / constrained_intra=0 / bframes=3 / b_pyramid=2 / b_adapt=2 / b_bias=0 / direct=3 / weightb=1 / open_gop=0 / weightp=2 / keyint=600 / keyint_min=60 / scenecut=40 / intra_refresh=0 / rc_lookahead=60 / rc=2pass / mbtree=1 / bitrate=10000 / ratetol=1.0 / qcomp=0.80 / qpmin=0 / qpmax=69 / qpstep=4 / cplxblur=20.0 / qblur=0.5 / vbv_maxrate=50000 / vbv_bufsize=50000 / nal_hrd=none / filler=0 / ip_ratio=1.10 / aq=1:0.50
Language : English
Default : Yes
Forced : No
DURATION : 01:42:21.324000000
NUMBER_OF_FRAMES : 368105
NUMBER_OF_BYTES : 7517190206
_STATISTICS_WRITING_APP : mkvmerge v22.0.0 ('At The End Of The World') 64-bit
_STATISTICS_WRITING_DATE_UTC : 2018-11-17 20:56:09
_STATISTICS_TAGS : BPS DURATION NUMBER_OF_FRAMES NUMBER_OF_BYTES
Audio #2
ID : 2
Format : AC-3
Format/Info : Audio Coding 3
Mode extension : CM (complete main)
Format settings, Endianness : Big
Codec ID : A_AC3
Duration : 1h 42mn
Bit rate mode : Constant
Bit rate : 384 Kbps
Channel(s) : 6 channels
Channel positions : Front: L C R, Side: L R, LFE
Sampling rate : 48.0 KHz
Bit depth : 16 bits
Compression mode : Lossy
Stream size : 281 MiB (4%)
Title : Дубляж (iTunes)
Language : Russian
Default : Yes
Forced : Yes
Menu
00:00:00.000 : en:1
00:06:24.384 : en:2
00:12:40.635 : en:3
00:20:12.545 : en:4
00:23:11.849 : en:5
00:31:00.651 : en:6
00:35:48.647 : en:7
00:39:38.460 : en:8
00:47:26.845 : en:9
00:53:30.708 : en:10
00:59:15.928 : en:11
01:05:28.216 : en:12
01:13:06.257 : en:13
01:21:13.619 : en:14
01:26:06.203 : en:15
01:34:31.791 : en:16
скриншот   скриншот   скриншот   скриншот  
pb.wtf



Скачать Поиск через торрент https://d.radikal.ru/d24/1902/da/0c3a23c1a3a5.png Скачать фильм Поиск через торрент бесплантно в хорошем качестве Описание: 16-летняя дочь Дэвида Кима пропадает без следа. Чтобы дать полиции зацепки, отчаявшийся отец взламывает компьютер девочки, и ... 9.3 10 4
Info! Золотая раздача, скачанное не засчитывается.
Торрент: Зарегистрирован [2019-02-21 16:18] · скачан: 79 раз
Статус: √ проверено
Размер: 7.28 GB
Как cкачать? Как скачать Поиск через торрент | qTorrent

% Раздел Тема Автор DL S | L
Фильмы [HD 720p, 1080p] (Хороший звук DUB, MVO) [ 7.89 GB ] Поиск / Searching [2018 BDRip 1080p] [Локализованная версия] DUB [] bober100 Скачать
4 | 0
Фильмы 2018 [DVDrip, WEB-DLRip, HDrip] (DUB, MVO) [ 1.46 GB ] Поиск / Searching [2018 BDRip] - [] Twi7ter Скачать
4 | 0
Фильмы 2018 [DVDrip, WEB-DLRip, HDrip] (DUB, MVO) [ 746 MB ] Поиск / Searching [2018 BDRip] [Локализованная версия] DUB [ BD CEE] bober100 Скачать
1 | 0
Фильмы 2018 [DVDrip, WEB-DLRip, HDrip] (DUB, MVO) [ 1.46 GB ] Поиск / Searching [2018 BDRip] [Локализованная версия] DUB [ BD CEE] bober100 Скачать
2 | 0
Фильмы [HD 720p, 1080p] (Хороший звук DUB, MVO) [ 5.09 GB ] Поиск / Searching [2018 BDRip-HEVC 1080p] bober100 Скачать
6 | 0
Фильмы 2018 [DVDrip, WEB-DLRip, HDrip] (DUB, MVO) [ 2.37 GB ] Поиск / Searching [2018 BDRip-AVC] [Локализованная версия] DUB [ BD CEE] -Lexx- Скачать
1 | 0
Фильмы (WEB-DL 720p, 1080p) [ 3.98 GB ] Поиск / Searching [2018 WEB-DL 1080p] [Локализованная версия] killermax2013 Скачать
11 | 0


>> Регистрируемся здесь <<






Отзывы и комментарии о схеме читаем и пишем здесь: ---> Отзывы и комментарии о схеме

Новые благодарочки в телеграм довольных пользователей:
скриншот   скриншот   скриншот   скриншот   скриншот

21-02-2019 19:23 Поиск Скачать торрент  

Хорошее кино, нооо, оно, уже куча раз тут было.
Российского в этом фильме ничего нет, с херали Страна: Россия, США????
Бекмамбетов, так он казах, в Голливуде прижившийся давно, это как писать в фильмах Спилберга Страна: Израиль, СШАpb.wtf



22-02-2019 11:47 Поиск Скачать торрент  

посмотреть можно, но мне показался нудноватым фильм. экшена нет, концовка быстрая и стремительная, а целый фильм возня.pb.wtf



    Дорогой пользователь! Огромная просьба, поблагодарите релизера, оцените раздачу и оставьте свои комментарий, если Вы скачали Поиск через торрент бесплатно! Внесите свою лепту в развитие PiratBit!
    Комментировать посты могут только пользователи прошедшие не сложную регистрацию
    Показать сообщения:    

    Поиск через торрент
    Скачать бесплатно Поиск
    Поиск скачать торрент
    Поиск смотреть онлайн
    Cкачать фильм Поиск бесплатно
    Поиск скачать торрент в хорошем качестве
    Поиск смотреть онлайн бесплатно в хорошем качестве


    Вы не можете начинать темы
    Вы не можете отвечать на сообщения
    Вы не можете редактировать свои сообщения
    Вы не можете удалять свои сообщения
    Вы не можете голосовать в опросах
    Вы не можете прикреплять файлы к сообщениям
    Вы можете скачивать файлы