Ссылка на приватное зеркало всего за 1$. Внимание количество ограничено!!!

OK

1+1

iTunes

мы

OK

1

WEB-DLRip

Джокер

Пифагор

Ведьмак / The Witcher сериал

iTunes

ПШазам

ОК

Оно 2

iTunes

30
pack

Вам бонус

ВАЖНО

!!Акция!!

Alien_RageХит недели

RePack

Resident Evil 21

ИГРА 18+

pack

RePack

jed

RePack

fifa19

RePack

Assassins Creed: Odyssey

RePack

NEED FOR SPEED™ PAYBACK

4 сезон

9 сезон

Бесстыжие 9 сезон

Все сериалы

все сериалы на PB.wtf

RePack

FAR CRY 5
  

Выжившие / The Last Ones (Андрей Хара) [2017, Ужасы,фантастика, триллер, WEB-DL 720p] MVO ["Синема УС"] pb.wtf

Выжившие через торрент pb.wtf

Размер: 2.75 GB | Добавлен: 11 мес. назад | Торрент скачан:55 раз
Скачать  

21-02-2019 16:59 Выжившие Скачать торрент  

Выжившие / The Last OnesГод выпуска: 2017
Страна: США
Жанр: Ужасы,фантастика, триллер
Продолжительность: 01:21:06
Перевод: Любительский (многоголосый) | "Синема УС"
Субтитры: отсутствуют

Режиссер: Андрей Хара

rating

В ролях:

Алджернон д'Аммасса, Марсель Боуман, Марк Огуэда, Пабло Медина, Роберт Родригес

Описание:

Когда повсюду распространяется вирус, унесший жизни большей части населения Земли, Джон и Майкл пытаются выжить и приспособиться. Но как только они встречаются с таинственной Кариной, которая обладает знаниями о мире за пределами их досягаемости, дружба двух парней и все, что они когда-то знали о вирусе и друг о друге, ставится под сомнение.

Качество: WEB-DL 720p
Формат: MKV

Видео: h.264,4 460 Кбит/с, 1280x640
Аудио#1: Русский, (AC3, 2 ch, 384 Кбит/с)
скриншот  скриншот  скриншот  

Общее
Уникальный идентификатор : 171047189046582525188846384204654062191 (0x80AE7D863051A8B0AE520C5097782A6F)
Полное имя : C:\TheLastOnes.2017.P.WEB_DL.72Op.mkv
Формат : Matroska
Версия формата : Version 2
Размер файла : 2,75 Гбайт
Продолжительность : 1 ч. 21 м.
Режим общего битрейта : Переменный
Общий поток : 4846 Кбит/сек
Дата кодирования : UTC 2019-02-21 12:41:18
Программа кодирования : mkvmerge v8.3.0 ('Over the Horizon') 64bit
Библиотека кодирования : libebml v1.3.1 + libmatroska v1.4.2

Видео
Идентификатор : 1
Формат : AVC
Формат/Информация : Advanced Video Codec
Профиль формата : High@L4.1
Параметр CABAC формата : Да
Параметр RefFrames формата : 4 кадра
Идентификатор кодека : V_MPEG4/ISO/AVC
Продолжительность : 1 ч. 21 м.
Вид битрейта : Переменный
Битрейт : 4460 Кбит/сек
Максимальный битрейт : 5000 Кбит/сек
Ширина : 1280 пикселей
Высота : 640 пикселей
Соотношение сторон : 2,000
Режим частоты кадров : Постоянный
Частота кадров : 23,976 (24000/1001) кадра/сек
Стандарт вещания : Component
Цветовое пространство : YUV
Субдискретизация насыщенности : 4:2:0
Битовая глубина : 8 бит
Тип развёртки : Прогрессивная
Бит/(Пиксели*Кадры) : 0.222
Размер потока : 2,47 Гбайт (90%)
Default : Да
Forced : Нет
Цветовой диапазон : Limited
Основные цвета : BT.709
Характеристики трансфера : BT.709
Коэффициенты матрицы : BT.709

Аудио
Идентификатор : 2
Формат : AC-3
Формат/Информация : Audio Coding 3
Расширение режима : CM (complete main)
Параметр Endianness формата : Big
Идентификатор кодека : A_AC3
Продолжительность : 1 ч. 21 м.
Вид битрейта : Постоянный
Битрейт : 384 Кбит/сек
Каналы : 2 канала
Расположение каналов : Front: L R
Частота : 48,0 КГц
Частота кадров : 31,250 кадров/сек (1536 spf)
Метод сжатия : С потерями
Размер потока : 223 Мбайт (8%)
Default : Да
Forced : Нет

pb.wtf



Скачать Выжившие через торрент https://b.radikal.ru/b36/1902/ee/66a534a675a9.jpg Скачать фильм Выжившие через торрент бесплантно в хорошем качестве Описание: Когда повсюду распространяется вирус, унесший жизни большей части населения Земли, Джон и Майкл пытаются выжить и приспособиться. ... 10 10 2
Торрент: Зарегистрирован [2019-02-21 16:59] · скачан: 55 раз
Статус: T временная
Размер: 2.75 GB
Как cкачать? Как скачать Выжившие через торрент | qTorrent

% Раздел Тема Автор DL S | L
T Фильмы (мультфильмы) cо спонсором показа (Новинки AVI/MKV) [ 1.37 GB ] Выжившие / The Last Ones [2017 WEB-DLRip] MVO ["Синема УС"] bober100 Скачать
1 | 0

28-11-2019 20:33  

Отключить всю рекламу на сайте

    Дорогой пользователь! Огромная просьба, поблагодарите релизера, оцените раздачу и оставьте свои комментарий, если Вы скачали Выжившие через торрент бесплатно! Внесите свою лепту в развитие PiratBit!
    Комментировать посты могут только пользователи прошедшие не сложную регистрацию
    Показать сообщения:    

    Выжившие через торрент
    Скачать бесплатно Выжившие
    Выжившие скачать торрент
    Выжившие смотреть онлайн
    Cкачать фильм Выжившие бесплатно
    Выжившие скачать торрент в хорошем качестве
    Выжившие смотреть онлайн бесплатно в хорошем качестве


    Вы не можете начинать темы
    Вы не можете отвечать на сообщения
    Вы не можете редактировать свои сообщения
    Вы не можете удалять свои сообщения
    Вы не можете голосовать в опросах
    Вы не можете прикреплять файлы к сообщениям
    Вы можете скачивать файлы