Ссылка на приватное зеркало всего за 1$. Внимание количество ограничено!!!

OK

1+1

iTunes

мы

OK

1

WEB-DLRip

Джокер

Пифагор

Ведьмак / The Witcher сериал

iTunes

ПШазам

ОК

Оно 2

iTunes

30
pack

Вам бонус

ВАЖНО

!!Акция!!

Alien_RageХит недели

RePack

Resident Evil 21

ИГРА 18+

pack

RePack

jed

RePack

fifa19

RePack

Assassins Creed: Odyssey

RePack

NEED FOR SPEED™ PAYBACK

4 сезон

9 сезон

Бесстыжие 9 сезон

Все сериалы

все сериалы на PB.wtf

RePack

FAR CRY 5
  

Аланис / Alanis (Анаи Бернери) [2017, драма, WEB-DL 720p] MVO ["Синема УС"] pb.wtf

Аланис через торрент pb.wtf

Раздают: 1 [ 0 KB/s ]
Размер: 2.74 GB | Добавлен: 11 мес. назад | Торрент скачан:87 раз
Скачать  

21-02-2019 17:25 Аланис Скачать торрент  

Аланис / Alanis Год выпуска: 2017
Страна: Аргентина
Жанр: драма
Продолжительность: 01:23:59
Перевод: Любительский (многоголосый) | "Синема УС"
Субтитры: отсутствуют

Режиссер: Анаи Бернери

rating

В ролях:

София Гала, Данте Делла Паолера, Дэна Бассо, Сильвина Сабатер, Карлос Антонио Вулетич, Эстела Гарелли, Сантьяго Педреро

Описание:

Два года назад беременная Мария, предпочитающая называть себя Аланис в честь знаменитой певицы, приехала в Буэнос-Айрес из глухой провинции. Здесь одинокой девушке с ребенком приходится выживать в жестоком и безжалостном мире большого города без профессии, денег и связей. Берясь за любую работу, не гнушаясь проституцией, Аланис пытается прокормить себя и своего маленького сына. Но ее единственная подруга арестована за незаконный секс-промысел, квартирный хозяин выгоняет Марию из квартиры, и девушке ничего не остается, как искать убежища у своей тети, женщины доброй, но отличающейся чрезвычайно пуританскими взглядами.

Качество: WEB-DL 720p
Формат: MKV

Видео: 4 279 kb/s, 1280x720
Аудио#1: Русский, (AC3, 2 ch, 384 Кбит/с)
скриншот  скриншот  скриншот  

Общее
Уникальный идентификатор : 184257440505325625347049400288884339558 (0x8A9EB134F8C84DCEA2EF2BE084ECB366)
Полное имя : D:\Alanis.2017.P.WEB-DL.72Op_KOSHARA.mkv
Формат : Matroska
Версия формата : Version 2
Размер файла : 2,74 Гбайт
Продолжительность : 1 ч. 23 м.
Режим общего битрейта : Переменный
Общий поток : 4665 Кбит/сек
Дата кодирования : UTC 2019-02-21 12:43:44
Программа кодирования : mkvmerge v8.3.0 ('Over the Horizon') 64bit
Библиотека кодирования : libebml v1.3.1 + libmatroska v1.4.2

Видео
Идентификатор : 1
Формат : AVC
Формат/Информация : Advanced Video Codec
Профиль формата : High@L4.1
Параметр CABAC формата : Да
Параметр RefFrames формата : 4 кадра
Идентификатор кодека : V_MPEG4/ISO/AVC
Продолжительность : 1 ч. 23 м.
Вид битрейта : Переменный
Битрейт : 4279 Кбит/сек
Максимальный битрейт : 5000 Кбит/сек
Ширина : 1280 пикселей
Высота : 720 пикселей
Соотношение сторон : 16:9
Режим частоты кадров : Постоянный
Частота кадров : 23,976 (24000/1001) кадра/сек
Стандарт вещания : Component
Цветовое пространство : YUV
Субдискретизация насыщенности : 4:2:0
Битовая глубина : 8 бит
Тип развёртки : Прогрессивная
Бит/(Пиксели*Кадры) : 0.190
Размер потока : 2,46 Гбайт (90%)
Default : Да
Forced : Нет
Цветовой диапазон : Limited
Основные цвета : BT.709
Характеристики трансфера : BT.709
Коэффициенты матрицы : BT.709

Аудио
Идентификатор : 2
Формат : AC-3
Формат/Информация : Audio Coding 3
Расширение режима : CM (complete main)
Параметр Endianness формата : Big
Идентификатор кодека : A_AC3
Продолжительность : 1 ч. 23 м.
Вид битрейта : Постоянный
Битрейт : 384 Кбит/сек
Каналы : 2 канала
Расположение каналов : Front: L R
Частота : 48,0 КГц
Частота кадров : 31,250 кадров/сек (1536 spf)
Метод сжатия : С потерями
Размер потока : 231 Мбайт (8%)
Default : Да
Forced : Нет

pb.wtf



Скачать Аланис через торрент https://b.radikal.ru/b16/1902/f7/eda2cc895946.jpg Скачать фильм Аланис через торрент бесплантно в хорошем качестве Описание: Два года назад беременная Мария, предпочитающая называть себя Аланис в честь знаменитой певицы, приехала в Буэнос-Айрес из глухой ... 6.4 10 5
Торрент: Зарегистрирован [2019-02-21 17:25] · скачан: 87 раз
Статус: T временная
Размер: 2.74 GB
Как cкачать? Как скачать Аланис через торрент | qTorrent

% Раздел Тема Автор DL S | L
T Фильмы (мультфильмы) cо спонсором показа (Новинки AVI/MKV) [ 1.37 GB ] Аланис / Alanis [2017 WEB-DLRip] MVO ["Синема УС"] bober100 Скачать
1 | 0

28-11-2019 20:33  

Отключить всю рекламу на сайте


    Дорогой пользователь! Огромная просьба, поблагодарите релизера, оцените раздачу и оставьте свои комментарий, если Вы скачали Аланис через торрент бесплатно! Внесите свою лепту в развитие PiratBit!
    Комментировать посты могут только пользователи прошедшие не сложную регистрацию
    Показать сообщения:    

    Аланис через торрент
    Скачать бесплатно Аланис
    Аланис скачать торрент
    Аланис смотреть онлайн
    Cкачать фильм Аланис бесплатно
    Аланис скачать торрент в хорошем качестве
    Аланис смотреть онлайн бесплатно в хорошем качестве


    Вы не можете начинать темы
    Вы не можете отвечать на сообщения
    Вы не можете редактировать свои сообщения
    Вы не можете удалять свои сообщения
    Вы не можете голосовать в опросах
    Вы не можете прикреплять файлы к сообщениям
    Вы можете скачивать файлы