Всегда рабочее зеркало без VPN и Proxy просто перед .vidak.icu напиши любое слово или цифру, Пример http://zoc5.vidak.icu

MVO

MVO

1 сезон

1

1 сезон

iTunes

1 сезон

13

1 сезон

Deluxe

pack

Рекомендуем

Repack

30

ВАЖНО

RePack

MK11

RePack

jed

RePack

fifa19

RePack

RDR2

RePack

NEED FOR SPEED™ PAYBACK

Кинопоиск HD

6 сезон

 Острые козырьки 6 сезон

Все сериалы

все сериалы на PB.wtf

RePack

FAR CRY 5
  
Magnet ссылка

Робин Гуд: Начало / Robin Hood (Отто Батхёрст) [2018, боевик, триллер, приключения, UHD BDRip 2160p] DUB [iTunes] + MVO [HDrezka Studio] pb.wtf

Робин Гуд: Начало через торрент pb.wtf

Размер: 23.39 GB | Добавлен: 3 года 5 мес. назад | Торрент скачан:169 раз
Смотреть онлайн Робин Гуд: Начало | Скачать    Ребята, помогите собрать деньги на оплату серверов!!!

22-02-2019 02:34 Робин Гуд: Начало Скачать торрент  

Робин Гуд: Начало / Robin Hood««The Legend You Know. The Story You Don't»»

Год выпуска: 2018
Страна: США
Жанр: боевик, триллер, приключения
Продолжительность: 01:56:08
Перевод: Дублированный, Профессиональный многоголосый
Субтитры: Английские, испанские
Режиссер: Отто Батхёрст
В ролях:

Тэрон Эджертон (Robin of Loxley), Джейми Фокс (Little John), Бен Мендельсон (Sheriff of Nottingham), Ив Хьюсон (Marian), Джейми Дорнан (Will Scarlet), Тим Минчин (Friar Tuck), Пол Андерсон (Guy of Gisbourne), Ф. Мюррэй Абрахам (Cardinal), Йен Пек (Arch Deacon), Корнелиус Бут (Lord Pembroke), Кэйн Хэдли-Каммингс (Stoker), Скот Гринен (Clayton)
Описание:
Ветеран Крестовых походов Робин из Локсли и его командир-мавр по возвращении в Англию видят, что родная страна погрязла в коррупции. Вместе они решают изменить положение дел и запускают маховики массовой революции, в центре которой окажется загадочный разбойник.
Рейтинг:

MPAA: PG-13 - Детям до 13 лет просмотр не желателен
Качество: UHD BDRip 2160p
Формат: MKV
Видео: HEVC HDR, 23700 Кбит/с, 3840x1600, 23.976 кадр/с, 10 бит
Аудио: AC-3, 6 ch, 384 kbps ( Дублированный | iTunes)
Аудио: AC-3, 2 ch, 192 kbps (Многоголосый HDrezka Studio)
Аудио: Dolby TrueHD, 8 ch, 3786 kbps (Английский Оригинал)
Аудио: AC-3, 6 ch, 640 kbps (Английский Оригинал)
Навигация по главам: есть

Общее
Уникальный идентификатор : 243751544668874223599454193041531980755 (0xB760D702D2FA114FB6595E66D653CBD3)
Полное имя : F:\Robin.Hood.2018.2160p.BDRip.x265.HDR.10bit.Master5.mkv
Формат : Matroska
Версия формата : Version 4
Размер файла : 23,4 Гбайт
Продолжительность : 1 ч. 56 м.
Режим общего битрейта : Переменный
Общий поток : 28,8 Мбит/сек
Название фильма : Robin.Hood.2018.2160p.BDRip.x265.HDR.10bit.Master5
Дата кодирования : UTC 2019-02-22 00:05:13
Программа кодирования : mkvmerge v7.9.0 ('Birds') 64bit
Библиотека кодирования : libebml v1.3.1 + libmatroska v1.4.2
Обложка : Yes
Attachments : small_cover.jpg / small_cover_land.jpg / cover.jpg / cover_land.jpg

Видео
Идентификатор : 1
Формат : HEVC
Формат/Информация : High Efficiency Video Coding
Коммерческое название : HDR10
Профиль формата : Main [email protected]@High
Идентификатор кодека : V_MPEGH/ISO/HEVC
Продолжительность : 1 ч. 56 м.
Битрейт : 23,7 Мбит/сек
Ширина : 3840 пикселей
Высота : 1600 пикселей
Соотношение сторон : 2,40:1
Режим частоты кадров : Постоянный
Частота кадров : 23,976 (24000/1001) кадра/сек
Цветовое пространство : YUV
Субдискретизация насыщенности : 4:2:0 (Type 2)
Битовая глубина : 10 бит
Бит/(Пиксели*Кадры) : 0.161
Размер потока : 19,2 Гбайт (82%)
Заголовок : Robin.Hood.2018.2160p.BDRip.x265.HDR.10bit.Master5
Библиотека кодирования : x265 3.0_RC+13-ae085e5cd8a2:[Windows][GCC 8.2.1][64 bit] 10bit
Настройки программы : cpuid=1111039 / frame-threads=16 / numa-pools=24,24,24,24 / wpp / no-pmode / no-pme / no-psnr / no-ssim / log-level=2 / input-csp=1 / input-res=3840x1600 / interlace=0 / total-frames=0 / level-idc=51 / high-tier=1 / uhd-bd=0 / ref=3 / no-allow-non-conformance / repeat-headers / annexb / aud / hrd / info / hash=0 / no-temporal-layers / no-open-gop / min-keyint=1 / keyint=24 / gop-lookahead=0 / bframes=4 / b-adapt=2 / b-pyramid / bframe-bias=0 / rc-lookahead=25 / lookahead-slices=4 / scenecut=40 / radl=0 / no-splice / no-intra-refresh / ctu=64 / min-cu-size=8 / no-rect / no-amp / max-tu-size=32 / tu-inter-depth=1 / tu-intra-depth=1 / limit-tu=0 / rdoq-level=0 / dynamic-rd=0.00 / no-ssim-rd / signhide / no-tskip / nr-intra=0 / nr-inter=0 / no-constrained-intra / strong-intra-smoothing / max-merge=2 / limit-refs=3 / no-limit-modes / me=1 / subme=2 / merange=57 / temporal-mvp / weightp / no-weightb / no-analyze-src-pics / deblock=0:0 / no-sao / no-sao-non-deblock / rd=3 / no-early-skip / rskip / no-fast-intra / no-tskip-fast / no-cu-lossless / no-b-intra / no-splitrd-skip / rdpenalty=0 / psy-rd=2.00 / psy-rdoq=0.00 / no-rd-refine / no-lossless / cbqpoffs=0 / crqpoffs=0 / rc=crf / crf=16.0 / qcomp=0.60 / qpstep=4 / stats-write=0 / stats-read=0 / vbv-maxrate=160000 / vbv-bufsize=160000 / vbv-init=0.9 / crf-max=0.0 / crf-min=0.0 / ipratio=1.40 / pbratio=1.30 / aq-mode=1 / aq-strength=1.00 / cutree / zone-count=0 / no-strict-cbr / qg-size=32 / no-rc-grain / qpmax=69 / qpmin=0 / no-const-vbv / sar=1 / overscan=0 / videoformat=5 / range=0 / colorprim=9 / transfer=16 / colormatrix=9 / chromaloc=1 / chromaloc-top=2 / chromaloc-bottom=2 / display-window=0 / master-display=G(13250,34500)B(7500,3000)R(34000,16000)WP(15635,16450)L(40000000,50) / max-cll=2980,791 / min-luma=0 / max-luma=1023 / log2-max-poc-lsb=8 / vui-timing-info / vui-hrd-info / slices=1 / opt-qp-pps / opt-ref-list-length-pps / no-multi-pass-opt-rps / scenecut-bias=0.05 / no-opt-cu-delta-qp / no-aq-motion / hdr / hdr-opt / no-dhdr10-opt / no-idr-recovery-sei / analysis-reuse-level=5 / scale-factor=0 / refine-intra=0 / refine-inter=0 / refine-mv=0 / refine-ctu-distortion=0 / no-limit-sao / ctu-info=0 / no-lowpass-dct / refine-analysis-type=0 / copy-pic=1 / max-ausize-factor=1.0 / no-dynamic-refine / no-single-sei / no-hevc-aq / qp-adaptation-range=1.00
Default : Да
Forced : Нет
Цветовой диапазон : Limited
Основные цвета : BT.2020
Характеристики трансфера : PQ
Коэффициенты матрицы : BT.2020 non-constant
MasteringDisplay_ColorPrimaries : Display P3
MasteringDisplay_Luminance : min: 0.0050 cd/m2, max: 4000 cd/m2
MaxCLL : 2980 cd/m2
MaxFALL : 791 cd/m2

Аудио #1
Идентификатор : 2
Формат : AC-3
Формат/Информация : Audio Coding 3
Коммерческое название : Dolby Digital
Идентификатор кодека : A_AC3
Продолжительность : 1 ч. 56 м.
Вид битрейта : Постоянный
Битрейт : 384 Кбит/сек
Каналы : 6 каналов
Channel layout : L R C LFE Ls Rs
Частота : 48,0 КГц
Частота кадров : 31,250 кадров/сек (1536 SPF)
Битовая глубина : 16 бит
Метод сжатия : С потерями
Размер потока : 319 Мбайт (1%)
Заголовок : iTunes
Язык : Russian
ServiceKind/String : Complete Main
Default : Да
Forced : Да

Аудио #2
Идентификатор : 3
Формат : AC-3
Формат/Информация : Audio Coding 3
Коммерческое название : Dolby Digital
Идентификатор кодека : A_AC3
Продолжительность : 1 ч. 56 м.
Вид битрейта : Постоянный
Битрейт : 192 Кбит/сек
Каналы : 2 канала
Channel layout : L R
Частота : 48,0 КГц
Частота кадров : 31,250 кадров/сек (1536 SPF)
Битовая глубина : 16 бит
Метод сжатия : С потерями
Размер потока : 159 Мбайт (1%)
Заголовок : HDrezka Studio
Язык : Russian
ServiceKind/String : Complete Main
Default : Нет
Forced : Нет

Аудио #3
Идентификатор : 4
Формат : MLP FBA 16-ch
Формат/Информация : Meridian Lossless Packing FBA with 16-channel presentation
Коммерческое название : Dolby TrueHD with Dolby Atmos
Идентификатор кодека : A_TRUEHD
Продолжительность : 1 ч. 56 м.
Вид битрейта : Переменный
Битрейт : 3786 Кбит/сек
Максимальный битрейт : 6249 Кбит/сек
Каналы : 8 каналов
Channel layout : L R C LFE Ls Rs Lb Rb
Частота : 48,0 КГц
Частота кадров : 1200,000 кадров/сек (40 SPF)
Метод сжатия : Без потерь
Размер потока : 3,07 Гбайт (13%)
Заголовок : TrueHD Atmos 7.1
Язык : English
Default : Нет
Forced : Нет
Number of dynamic objects : 15
Bed channel count : 1 канал
Bed channel configuration : LFE

Аудио #4
Идентификатор : 5
Формат : AC-3
Формат/Информация : Audio Coding 3
Коммерческое название : Dolby Digital
Идентификатор кодека : A_AC3
Продолжительность : 1 ч. 56 м.
Вид битрейта : Постоянный
Битрейт : 640 Кбит/сек
Каналы : 6 каналов
Channel layout : L R C LFE Ls Rs
Частота : 48,0 КГц
Частота кадров : 31,250 кадров/сек (1536 SPF)
Битовая глубина : 16 бит
Метод сжатия : С потерями
Размер потока : 532 Мбайт (2%)
Заголовок : AC3 5.1
Язык : English
ServiceKind/String : Complete Main
Default : Нет
Forced : Нет

Текст #1
Идентификатор : 6
Формат : PGS
Режим смешивания : zlib
Идентификатор кодека : S_HDMV/PGS
Идентификатор кодека/Информация : Picture based subtitle format used on BDs/HD-DVDs
Продолжительность : 1 ч. 55 м.
Битрейт : 17,2 Кбит/сек
ElementCount : 2968
Размер потока : 14,2 Мбайт (0%)
Заголовок : English (SDH)
Язык : English
Default : Нет
Forced : Нет

Текст #2
Идентификатор : 7
Формат : PGS
Режим смешивания : zlib
Идентификатор кодека : S_HDMV/PGS
Идентификатор кодека/Информация : Picture based subtitle format used on BDs/HD-DVDs
Продолжительность : 1 ч. 46 м.
Битрейт : 16,7 Кбит/сек
ElementCount : 2452
Размер потока : 12,7 Мбайт (0%)
Заголовок : Spanish (Latin American)
Язык : Spanish
Default : Нет
Forced : Нет

Меню
00:00:00.000 : en:Chapter 01
00:05:40.340 : en:Chapter 02
00:12:22.992 : en:Chapter 03
00:18:31.986 : en:Chapter 04
00:24:03.150 : en:Chapter 05
00:30:43.341 : en:Chapter 06
00:37:25.452 : en:Chapter 07
00:43:39.033 : en:Chapter 08
00:50:00.122 : en:Chapter 09
00:57:47.297 : en:Chapter 10
01:05:26.131 : en:Chapter 11
01:10:55.001 : en:Chapter 12
01:18:44.136 : en:Chapter 13
01:24:20.013 : en:Chapter 14
01:31:18.306 : en:Chapter 15
01:44:48.866 : en:Chapter 16
pb.wtf



Скачать Робин Гуд: Начало через торрент https://d.radikal.ru/d20/1902/03/94bad3a5ce4b.png Скачать, смотреть онлайн Робин Гуд: Начало бесплантно в хорошем качестве Описание: Ветеран Крестовых походов Робин из Локсли и его командир-мавр по возвращении в Англию видят, что родная страна погрязла в ... 8 10 3
Торрент: Зарегистрирован [2019-02-22 02:34] · скачан: 169 раз
Статус: √ проверено
Размер: 23.39 GB
Как cкачать? Как скачать Робин Гуд: Начало через торрент | UTorrent

% Раздел Тема Автор DL S | L
Фильмы 2018 [DVDrip, WEB-DLRip, HDrip] (DUB, MVO) [ 1.46 GB ] Робин Гуд: Начало / Robin Hood [2018 WEB-DLRip] [Локализованный видеоряд] killermax2013 Скачать
1 | 0
Фильмы (HD 720p, 1080p) (48-60 fps) [ 26.48 GB ] Робин Гуд: Начало / Robin Hood [2018 BDRip 1080p 60 fps] sheker187 Скачать
1 | 0
T Фильмы с украинским озвучиванием [ 3.58 GB ] Робин Гуд: Начало / Robin Hood [2018 WEBRip 1080p] [Ukr DUB] killermax2013 Скачать
1 | 0
Ultra HD (UHD: 2K, 4K, 8K) — видео сверхвысокой чёткости [ 85.87 GB ] Робин Гуд: Начало / Robin Hood [2018 UHD Blu-ray 2160p] [Dolby Vision] sheker187 Скачать
1 | 0
Фильмы 2018 [DVDrip, WEB-DLRip, HDrip] (DUB, MVO) [ 2.13 GB ] Робин Гуд: Начало / Robin Hood [2018 BDRip] - Twi7ter Скачать
1 | 0
Фильмы [HD 720p, 1080p] (Хороший звук DUB, MVO) [ 9.5 GB ] Робин Гуд: Начало / Robin Hood [2018 BDRip 1080p] MVO [HDrezka Studio] + bober100 Скачать
1 | 0
Фильмы 2018 [DVDrip, WEB-DLRip, HDrip] (DUB, MVO) [ 1.41 GB ] Робин Гуд: Начало / Robin Hood [2018 BDRip] bober100 Скачать
1 | 0

28-11-2019 20:33  

Отключить вcю реклaмy на сайте

    Дорогой пользователь! Огромная просьба, поблагодарите релизера, оцените раздачу и оставьте свои комментарий, если Вы скачали Робин Гуд: Начало через торрент бесплатно!
    Комментировать посты могут только пользователи прошедшие не сложную регистрацию
    Показать сообщения:    

    Робин Гуд: Начало через торрент
    Скачать бесплатно Робин Гуд: Начало
    Робин Гуд: Начало скачать торрент
    Робин Гуд: Начало смотреть онлайн
    Cкачать фильм Робин Гуд: Начало бесплатно
    Робин Гуд: Начало скачать торрент в хорошем качестве
    Робин Гуд: Начало смотреть онлайн бесплатно в хорошем качестве


    Вы не можете начинать темы
    Вы не можете отвечать на сообщения
    Вы не можете редактировать свои сообщения
    Вы не можете удалять свои сообщения
    Вы не можете голосовать в опросах
    Вы не можете прикреплять файлы к сообщениям
    Вы можете скачивать файлы