Ссылка на приватное зеркало всего за 1$. Внимание количество ограничено!!!

iTunes

iTunes

iTunes

1

iTunes

iTunes

iTunes

iTunes

iTunes

30
pack

$ от Little Big

ВАЖНО

!!Акция!!

Alien_RageХит недели

RePack

Resident Evil 21

ИГРА 18+

pack

RePack

jed

!!Акция!!

Alien_Rage

RePack

fifa19

RePack

Assassins Creed: Odyssey

RePack

NEED FOR SPEED™ PAYBACK

4 сезон

9 сезон

Бесстыжие 9 сезон

Все сериалы

все сериалы на PB.wtf

RePack

FAR CRY 5
  

Птичий короб / Bird Box (Сюзанна Бир) [2018, ужасы, фантастика, триллер, BDRip 720p, 60 fps] Дубляж [Невафильм] pb.wtf

Птичий короб через торрент pb.wtf

Размер: 9.42 GB | Добавлен: 1 год 4 мес. назад | Торрент скачан:231 раз
Скачать  

22-02-2019 04:37 Птичий короб Скачать торрент  

Птичий короб / Bird Box««Never Lose Sight of Survival»»

Год выпуска: 2018
Страна: США
Жанр: ужасы, фантастика, триллер, драма
Продолжительность: 02:03:47
Перевод: Дублированный | Невафильм
Cубтитры: Русские, английские
Режиссер: Сюзанна Бир
В ролях:

Сандра Буллок (Malorie), Треванте Роудс (Tom), Джон Малкович (Douglas), Сара Полсон (Jessica), Джеки Уивер (Cheryl), Роза Салазар (Lucy), Даниэль МакДональд (Olympia), Лил Релл (Charlie), Том Холландер (Gary), Машин Ган Келли (Felix), Б.Д. Вонг (Greg), Прюитт Тэйлор Винс (Rick)
Описание:
Пять лет назад мир погрузился в хаос: увидев нечто, люди кончают жизнь самоубийством. Женщина с двумя пятилетними детьми, услышав по радио о безопасном месте, отправляется на поиски выжившей общины и прихватывает с собой попугаев в коробке. Чтобы сохранить жизнь в этом новом мире, самое главное - не смотреть по сторонам и слушать, как птицы реагируют на приближающуюся опасность.
Рейтинг:

MPAA: R - Лицам до 17 лет обязательно присутствие взрослого
Качество: BDRip 720p / 60 fps
Формат: MKV
Видео: AVC | 1280 x 528 | 60,000 fps | 10.0 Мбит/сек
Аудио #1: AC3 | 5.1 | 48 kHz | 448 kbps | 16 bit | Дубляж (Невафильм) | RUS
Аудио #2: AC3 | 5.1 | 48 kHz | 448 kbps | 16 bit | Оригинал | ENG
General
Unique ID : 57906218386303538767059114070753332432 (0x2B9054FDAA93F47648C7B88D6456CCD0)
Complete name : D:\2018 Птичий короб BDRip 720p 60 fps.mkv
Format : Matroska
Format version : Version 4 / Version 2
File size : 9.42 GiB
Duration : 2h 3mn
Overall bit rate : 10.9 Mbps
Movie name : Птичий короб
Encoded date : UTC 2019-01-04 21:56:39
Writing application : mkvmerge v22.0.0 ('At The End Of The World') 64-bit
Writing library : libebml v1.3.5 + libmatroska v1.4.8
DURATION : 01:59:10.167000000
NUMBER_OF_FRAMES : 1727
NUMBER_OF_BYTES : 54701
_STATISTICS_WRITING_APP : mkvmerge v22.0.0 ('At The End Of The World') 64-bit
_STATISTICS_WRITING_DATE_UTC : 2019-01-04 21:56:39
_STATISTICS_TAGS : BPS DURATION NUMBER_OF_FRAMES NUMBER_OF_BYTES
Attachment : Yes
Video #1
ID : 1
Format : AVC
Format/Info : Advanced Video Codec
Format profile : High@L4.1
Format settings, CABAC : Yes
Format settings, ReFrames : 8 frames
Codec ID : V_MPEG4/ISO/AVC
Duration : 2h 3mn
Bit rate : 10 000 Kbps
Width : 1 280 pixels
Height : 528 pixels
Display aspect ratio : 2.40:1
Frame rate : 60.000 fps
Color space : YUV
Chroma subsampling : 4:2:0
Bit depth : 8 bits
Scan type : Progressive
Bits/(Pixel*Frame) : 0.247
Stream size : 8.45 GiB (90%)
Writing library : x264 core 146 r2538 121396c
Encoding settings : cabac=1 / ref=8 / deblock=1:-2:-2 / analyse=0x3:0x113 / me=umh / subme=9 / psy=1 / psy_rd=1.00:0.25 / mixed_ref=1 / me_range=32 / chroma_me=1 / trellis=2 / 8x8dct=1 / cqm=0 / deadzone=6,6 / fast_pskip=1 / chroma_qp_offset=-4 / threads=12 / lookahead_threads=2 / sliced_threads=0 / nr=0 / decimate=0 / interlaced=0 / bluray_compat=0 / constrained_intra=0 / bframes=3 / b_pyramid=2 / b_adapt=2 / b_bias=0 / direct=3 / weightb=1 / open_gop=0 / weightp=2 / keyint=600 / keyint_min=60 / scenecut=40 / intra_refresh=0 / rc_lookahead=60 / rc=2pass / mbtree=1 / bitrate=10000 / ratetol=1.0 / qcomp=0.80 / qpmin=0 / qpmax=69 / qpstep=4 / cplxblur=20.0 / qblur=0.5 / vbv_maxrate=50000 / vbv_bufsize=50000 / nal_hrd=none / filler=0 / ip_ratio=1.10 / aq=1:0.50
Language : English
Default : Yes
Forced : No
DURATION : 02:03:47.934000000
NUMBER_OF_FRAMES : 445676
NUMBER_OF_BYTES : 9274163757
_STATISTICS_WRITING_APP : mkvmerge v22.0.0 ('At The End Of The World') 64-bit
_STATISTICS_WRITING_DATE_UTC : 2019-01-04 21:56:39
_STATISTICS_TAGS : BPS DURATION NUMBER_OF_FRAMES NUMBER_OF_BYTES
Audio #2
ID : 2
Format : AC-3
Format/Info : Audio Coding 3
Mode extension : CM (complete main)
Format settings, Endianness : Big
Codec ID : A_AC3
Duration : 2h 3mn
Bit rate mode : Constant
Bit rate : 448 Kbps
Channel(s) : 6 channels
Channel positions : Front: L C R, Side: L R, LFE
Sampling rate : 48.0 KHz
Bit depth : 16 bits
Compression mode : Lossy
Stream size : 397 MiB (4%)
Title : Дублированный, Nevafilm
Language : Russian
Default : Yes
Forced : No
Audio #3
ID : 3
Format : AC-3
Format/Info : Audio Coding 3
Mode extension : CM (complete main)
Format settings, Endianness : Big
Codec ID : A_AC3
Duration : 2h 3mn
Bit rate mode : Constant
Bit rate : 448 Kbps
Channel(s) : 6 channels
Channel positions : Front: L C R, Side: L R, LFE
Sampling rate : 48.0 KHz
Bit depth : 16 bits
Compression mode : Lossy
Stream size : 397 MiB (4%)
Title : Оригинал
Language : English
Default : No
Forced : No
Text #4
ID : 4
Format : UTF-8
Codec ID : S_TEXT/UTF8
Codec ID/Info : UTF-8 Plain Text
Title : Forced
Language : Russian
Default : Yes
Forced : Yes
Text #5
ID : 5
Format : UTF-8
Codec ID : S_TEXT/UTF8
Codec ID/Info : UTF-8 Plain Text
Title : Full
Language : Russian
Default : No
Forced : No
Text #6
ID : 6
Format : UTF-8
Codec ID : S_TEXT/UTF8
Codec ID/Info : UTF-8 Plain Text
Language : English
Default : No
Forced : No
Text #7
ID : 7
Format : UTF-8
Codec ID : S_TEXT/UTF8
Codec ID/Info : UTF-8 Plain Text
Title : SDH
Language : English
Default : No
Forced : No
скриншот   скриншот   скриншот   скриншот  
pb.wtf



Скачать Птичий короб через торрент https://d.radikal.ru/d02/1902/de/ca1de107f671.png Скачать фильм Птичий короб через торрент бесплантно в хорошем качестве Описание: Пять лет назад мир погрузился в хаос: увидев нечто, люди кончают жизнь самоубийством. Женщина с двумя пятилетними детьми, услышав ... 9.5 10 10
Торрент: Зарегистрирован [2019-02-22 04:37] · скачан: 231 раз
Статус: √ проверено
Размер: 9.42 GB
Как cкачать? Как скачать Птичий короб через торрент | qTorrent

% Раздел Тема Автор DL S | L
Фильмы 2018 [DVDrip, WEB-DLRip, HDrip] (DUB, MVO) [ 1.46 GB ] Птичий короб / Bird Box [2018 WEBRip] DUB [Невафильм] bober100 Скачать
2 | 0
Ultra HD (UHD: 2K, 4K, 8K) — видео сверхвысокой чёткости [ 17.74 GB ] Птичий короб / Bird Box [2018 WEBRip 2160p] DUB [Невафильм] bober100 Скачать
1 | 0
Фильмы (WEB-DL 720p, 1080p) [ 3.67 GB ] Птичий короб / Bird Box [2018 WEBRip 720p] DUB [Невафильм] bober100 Скачать
3 | 0
Фильмы (WEB-DL 720p, 1080p) [ 8.47 GB ] Птичий короб / Bird Box [2018 WEBRip 1080p] killermax2013 Скачать
1 | 0
Фильмы 2018 [DVDrip, WEB-DLRip, HDrip] (DUB, MVO) [ 2.18 GB ] Птичий короб / Bird Box [2018 WEBRip] killermax2013 Скачать
1 | 0
Фильмы 2018 [DVDrip, WEB-DLRip, HDrip] (DUB, MVO) [ 746 MB ] Птичий короб / Bird Box [2018 WEBRip] DUB [Невафильм] bober100 Скачать
1 | 0
Фильмы (WEB-DL 720p, 1080p) [ 4.92 GB ] Птичий короб / Bird Box [2018 WEB-DL HEVC 1080p] [HDR] killermax2013 Скачать
1 | 0

28-11-2019 20:33  

Отключить всю рекламу на сайте

22-02-2019 11:51 Птичий короб Скачать торрент  

полная бредятина,шляпа.pb.wtf



    Дорогой пользователь! Огромная просьба, поблагодарите релизера, оцените раздачу и оставьте свои комментарий, если Вы скачали Птичий короб через торрент бесплатно! Внесите свою лепту в развитие PiratBit!
    Комментировать посты могут только пользователи прошедшие не сложную регистрацию
    Показать сообщения:    

    Птичий короб через торрент
    Скачать бесплатно Птичий короб
    Птичий короб скачать торрент
    Птичий короб смотреть онлайн
    Cкачать фильм Птичий короб бесплатно
    Птичий короб скачать торрент в хорошем качестве
    Птичий короб смотреть онлайн бесплатно в хорошем качестве


    Вы не можете начинать темы
    Вы не можете отвечать на сообщения
    Вы не можете редактировать свои сообщения
    Вы не можете удалять свои сообщения
    Вы не можете голосовать в опросах
    Вы не можете прикреплять файлы к сообщениям
    Вы можете скачивать файлы