новый адрес
Ссылка на приватное зеркало всего за 1$. Внимание количество ограничено!!!

iTunes

1+1

iTunes

мы

WEB-DL

1

iTunes

Чернобыль

iTunes

Ральф против интернета

Лицензия

ПШазам

Лицензия

Оно 2

Лицензия

30
pack

Вам бонус

ВАЖНО

!!Акция!!

Alien_RageХит недели

RePack

Resident Evil 21

ИГРА 18+

pack

RePack

jed

!!Акция!!

Alien_Rage

RePack

fifa19

RePack

Assassins Creed: Odyssey

RePack

NEED FOR SPEED™ PAYBACK

3 сезон

9 сезон

Бесстыжие 9 сезон

Все сериалы

все сериалы на PB.wtf

RePack

FAR CRY 5
Ребята, катастрофически не хватает 1900р. для оплаты серверов за Октябрь (всвязи с блокировками трафик упал в 3 раза), 1-2р., выручайте.
  

Правила бойни / Slaughterhouse Rulez (Криспиан Миллс) [2018, ужасы, комедия, BDRip-AVC] MVO [iTunes] pb.wtf

Правила бойни через торрент pb.wtf

Размер: 1.92 GB | Добавлен: 6 мес. назад | Торрент скачан:144 раза
Скачать  

22-02-2019 06:01 Правила бойни Скачать торрент  

Правила бойни / Slaughterhouse Rulez
«Bloodius. Hellius. Maximus»
Год выпуска: 2018
Страна: Великобритания
Жанр: ужасы, комедия
Продолжительность: 01:43:42
Перевод: Профессиональный (многоголосый) | iTunes
Субтитры: Русские (полные), Английские (полные, SDH)

Режиссер: Криспиан Миллс

rating

В ролях:

Финн Коул, Эйса Баттерфилд, Саймон Пегг, Гермиона Корфилд, Майкл Шин, Том Рис Харрис, Марго Робби, Ник Фрост, Джейми Блэкли, Алекс МакКуин

Описание:

В элитной британской школе-интернате с интересным названием Бойня, как и положено, царят снобизм, высокомерие и жестокий закон джунглей. Новеньким и слабым приходится терпеть унижения и даже побои. Некоторое разнообразие в заведенный десятилетиями порядок вносит внезапно образовавшийся в соседнем лесу невероятно глубокий провал в земле. А вылезшие из дыры плотоядные чудовища и вовсе разрушают учебный план, напоминая ученикам и преподавателям, что такое настоящий естественный отбор.

Качество: BDRip-AVC
Формат: MKV

Видео: 1024x428 (2.40:1), 23,976 fps, x264 ~1 821 kbps avg, 0.173 bit/pixel
Аудио#1: 48 kHz, AC3 Dolby Digital Plus, 3/2 (L,C,R,l,r) + LFE ch, ~384.00 kbps avg | RUS (iTunes)
Аудио#2: 48 kHz, AC3 Dolby Digital Plus, 3/2 (L,C,R,l,r) + LFE ch, ~448.00 kbps avg | ENG
скриншот  скриншот  скриншот  скриншот  скриншот  

Общее
Уникальный идентификатор : 134089381898661314831297900627866216396 (0x64E0ACF2F62F8708E11F869C2130E7CC)
Полное имя : F:OlLanDGroupSlaughterhouse.Rulez.2018.BDRip(AVC).OlLanDGroup.mkv
Формат : Matroska
Версия формата : Version 4 / Version 2
Размер файла : 1,92 Гбайт
Продолжительность : 1 ч. 43 м.
Общий поток : 2655 Кбит/сек
Название фильма : Slaughterhouse.Rulez.2018 #TorpedoUK#
Дата кодирования : UTC 2019-05-22 04:28:11
Программа кодирования : mkvmerge v29.0.0 ('Like It Or Not') 64-bit
Библиотека кодирования : libebml v1.3.6 + libmatroska v1.4.9

Видео
Идентификатор : 1
Формат : AVC
Формат/Информация : Advanced Video Codec
Профиль формата : High@L4.1
Параметр CABAC формата : Да
Параметр ReFrames формата : 10 кадров
Идентификатор кодека : V_MPEG4/ISO/AVC
Продолжительность : 1 ч. 43 м.
Битрейт : 1821 Кбит/сек
Ширина : 1024 пикселя
Высота : 428 пикселей
Соотношение сторон : 2,40:1
Режим частоты кадров : Постоянный
Частота кадров : 23,976 (24000/1001) кадра/сек
Цветовое пространство : YUV
Субдискретизация насыщенности : 4:2:0
Битовая глубина : 8 бит
Тип развёртки : Прогрессивная
Бит/(Пиксели*Кадры) : 0.173
Размер потока : 1,32 Гбайт (69%)
Библиотека кодирования : x264 core 146 r2538 121396c
Настройки программы : cabac=1 / ref=10 / deblock=1:-3:-3 / analyse=0x3:0x113 / me=umh / subme=11 / psy=1 / psy_rd=1.00:0.03 / mixed_ref=1 / me_range=48 / chroma_me=1 / trellis=2 / 8x8dct=1 / cqm=0 / deadzone=21,11 / fast_pskip=1 / chroma_qp_offset=-3 / threads=6 / lookahead_threads=1 / sliced_threads=0 / nr=0 / decimate=1 / interlaced=0 / bluray_compat=0 / constrained_intra=0 / bframes=11 / b_pyramid=2 / b_adapt=2 / b_bias=0 / direct=3 / weightb=1 / open_gop=0 / weightp=2 / keyint=240 / keyint_min=23 / scenecut=40 / intra_refresh=0 / rc_lookahead=40 / rc=2pass / mbtree=0 / bitrate=1821 / ratetol=1.0 / qcomp=0.60 / qpmin=0 / qpmax=69 / qpstep=4 / cplxblur=20.0 / qblur=0.5 / vbv_maxrate=50000 / vbv_bufsize=62500 / nal_hrd=none / filler=0 / ip_ratio=1.40 / pb_ratio=1.30 / aq=1:1.00
Язык : English
Default : Да
Forced : Нет

Аудио #1
Идентификатор : 2
Формат : AC-3
Формат/Информация : Audio Coding 3
Расширение режима : CM (complete main)
Параметр Endianness формата : Big
Идентификатор кодека : A_AC3
Продолжительность : 1 ч. 43 м.
Вид битрейта : Постоянный
Битрейт : 384 Кбит/сек
Каналы : 6 каналов
Расположение каналов : Front: L C R, Side: L R, LFE
Частота : 48,0 КГц
Частота кадров : 31,250 кадров/сек (1536 spf)
Битовая глубина : 16 бит
Метод сжатия : С потерями
Размер потока : 285 Мбайт (14%)
Заголовок : MVO [iTunes]
Язык : Russian
Default : Да
Forced : Нет

Аудио #2
Идентификатор : 3
Формат : AC-3
Формат/Информация : Audio Coding 3
Расширение режима : CM (complete main)
Параметр Endianness формата : Big
Идентификатор кодека : A_AC3
Продолжительность : 1 ч. 43 м.
Вид битрейта : Постоянный
Битрейт : 448 Кбит/сек
Каналы : 6 каналов
Расположение каналов : Front: L C R, Side: L R, LFE
Частота : 48,0 КГц
Частота кадров : 31,250 кадров/сек (1536 spf)
Битовая глубина : 16 бит
Метод сжатия : С потерями
Размер потока : 332 Мбайт (17%)
Заголовок : [Original]
Язык : English
Default : Нет
Forced : Нет

Текст #1
Идентификатор : 4
Формат : UTF-8
Идентификатор кодека : S_TEXT/UTF8
Идентификатор кодека/Информация : UTF-8 Plain Text
Продолжительность : 1 ч. 40 м.
Битрейт : 104 бит/сек
Count of elements : 1636
Размер потока : 76,8 Кбайт (0%)
Заголовок : Full
Язык : Russian
Default : Нет
Forced : Нет

Текст #2
Идентификатор : 5
Формат : UTF-8
Идентификатор кодека : S_TEXT/UTF8
Идентификатор кодека/Информация : UTF-8 Plain Text
Продолжительность : 2 м. 45 с.
Битрейт : 6 бит/сек
Count of elements : 6
Размер потока : 127 байт (0%)
Заголовок : Forced
Язык : English
Default : Нет
Forced : Нет

Текст #3
Идентификатор : 6
Формат : UTF-8
Идентификатор кодека : S_TEXT/UTF8
Идентификатор кодека/Информация : UTF-8 Plain Text
Продолжительность : 1 ч. 40 м.
Битрейт : 72 бит/сек
Count of elements : 1548
Размер потока : 53,4 Кбайт (0%)
Заголовок : Full
Язык : English
Default : Нет
Forced : Нет

Текст #4
Идентификатор : 7
Формат : UTF-8
Идентификатор кодека : S_TEXT/UTF8
Идентификатор кодека/Информация : UTF-8 Plain Text
Продолжительность : 1 ч. 41 м.
Битрейт : 77 бит/сек
Count of elements : 1734
Размер потока : 57,7 Кбайт (0%)
Заголовок : SDH
Язык : English
Default : Нет
Forced : Нет

Меню
00:00:00.000 : en:Chapter 01
00:07:13.600 : en:Chapter 02
00:13:35.898 : en:Chapter 03
00:19:19.950 : en:Chapter 04
00:25:51.550 : en:Chapter 05
00:32:12.848 : en:Chapter 06
00:38:57.877 : en:Chapter 07
00:45:25.056 : en:Chapter 08
00:51:12.695 : en:Chapter 09
00:56:48.071 : en:Chapter 10
01:01:45.285 : en:Chapter 11
01:10:52.874 : en:Chapter 12
01:17:56.547 : en:Chapter 13
01:25:59.029 : en:Chapter 14
01:33:08.666 : en:Chapter 15
01:37:12.535 : en:Chapter 16

pb.wtf



Скачать Правила бойни через торрент https://i110.fastpic.ru/big/2019/0522/46/ee1a16a29a8ee45a37edd106ee79a246.jpg Скачать фильм Правила бойни через торрент бесплантно в хорошем качестве Описание: В элитной британской школе-интернате с интересным названием Бойня, как и положено, царят снобизм, высокомерие и жестокий закон ... 10 10 6
Торрент: Зарегистрирован [2019-05-25 01:27] · скачан: 144 раз
Статус: √ проверено
Размер: 1.92 GB
Как cкачать? Как скачать Правила бойни через торрент | qTorrent

% Раздел Тема Автор DL S | L
Фильмы 2018 [DVDrip, WEB-DLRip, HDrip] (DUB, MVO) [ 1.42 GB ] Правила бойни / Slaughterhouse Rulez [2018 BDRip] MVO Twi7ter Скачать
9 | 0
Фильмы 2018 [DVDrip, WEB-DLRip, HDrip] (DUB, MVO) [ 1.46 GB ] Правила бойни / Slaughterhouse Rulez [2018 HDRip] [MVO] killermax2013 Скачать
3 | 0
T Фильмы [HD 720p, 1080p] (Хороший звук DUB, MVO) [ 7.93 GB ] Правила бойни / Slaughterhouse Rulez [2018 BDRip 1080p] [MVO] killermax2013 Скачать
3 | 0

28-11-2019 20:33  

Отключить всю рекламу на сайте

    Дорогой пользователь! Огромная просьба, поблагодарите релизера, оцените раздачу и оставьте свои комментарий, если Вы скачали Правила бойни через торрент бесплатно! Внесите свою лепту в развитие PiratBit!
    Комментировать посты могут только пользователи прошедшие не сложную регистрацию
    Показать сообщения:    

    Правила бойни через торрент
    Скачать бесплатно Правила бойни
    Правила бойни скачать торрент
    Правила бойни смотреть онлайн
    Cкачать фильм Правила бойни бесплатно
    Правила бойни скачать торрент в хорошем качестве
    Правила бойни смотреть онлайн бесплатно в хорошем качестве


    Вы не можете начинать темы
    Вы не можете отвечать на сообщения
    Вы не можете редактировать свои сообщения
    Вы не можете удалять свои сообщения
    Вы не можете голосовать в опросах
    Вы не можете прикреплять файлы к сообщениям
    Вы можете скачивать файлы