Ссылка на приватное зеркало всего за 1$. Внимание количество ограничено!!!

iTunes

iTunes

iTunes

1

iTunes

iTunes

iTunes

WEBRip

iTunes

30
pack

$ от Little Big

ВАЖНО

!!Акция!!

Alien_RageХит недели

RePack

Resident Evil 21

ИГРА 18+

pack

RePack

jed

!!Акция!!

Alien_Rage

RePack

fifa19

RePack

Assassins Creed: Odyssey

RePack

NEED FOR SPEED™ PAYBACK

4 сезон

9 сезон

Бесстыжие 9 сезон

Все сериалы

все сериалы на PB.wtf

RePack

FAR CRY 5
  

Позывной «Бандерас» (Заза Буадзе) [2018, триллер, драма, военный, WEB-DL 720p] MVO ["Синема УС"] pb.wtf

Позывной «Бандерас» через торрент pb.wtf

Размер: 4.51 GB | Добавлен: 1 год 5 мес. назад | Торрент скачан:50 раз
Скачать  

22-02-2019 06:51 Позывной «Бандерас» Скачать торрент  

Позывной «Бандерас» Год выпуска: 2018
Страна: Украина
Жанр: триллер, драма, военный
Продолжительность: 01:53:47
Перевод: Любительский (многоголосый) | "Синема УС"
Субтитры: отсутствуют

Режиссер: Заза Буадзе

rating

В ролях:

Олег Шульга, Юлия Чепурко, Сергей Лефор, Олег Онещак, Михаил Озеров, Марта Папич, Владимир Романько, Олег Власов, Олег Волощенко, Николай Змеевский

Описание:

Опытный вояка, капитан Антон Саенко, которого в отряде все называют по позывному «Бандерас», вот уже двадцать лет не был дома в родной деревне. Однако началась антитеррористическая операция, которая заставила не только Антона, но и тысячи других украинских мужчин попасть на эту территорию. Возле этой деревни вскоре предвидится серия диверсий, которые Бандерас вместе с другими разведчиками должен предотвратить. Хуже всего то, что где-то среди своих ребят находится предатель, который может в любой момент воткнуть нож в спину.

Качество: WEB-DL 720p
Формат: MKV

Видео: h.264,5 289 Кбит/с, 720x530
Аудио#1: Русский, (AC3, 2 ch, 384 Кбит/с)
скриншот  скриншот  скриншот  

Общее
Уникальный идентификатор : 187138022693272501952225302980621300118 (0x8CC978DFBAB78AC1AC2287C1C1C4F196)
Полное имя : D:\PZivnoy.BenDera...s.2O19.P.WEB_DL.72Op.mkv
Формат : Matroska
Версия формата : Version 2
Размер файла : 4,51 Гбайт
Продолжительность : 1 ч. 53 м.
Режим общего битрейта : Переменный
Общий поток : 5675 Кбит/сек
Дата кодирования : UTC 2019-02-21 11:31:16
Программа кодирования : mkvmerge v8.3.0 ('Over the Horizon') 64bit
Библиотека кодирования : libebml v1.3.1 + libmatroska v1.4.2

Видео
Идентификатор : 1
Формат : AVC
Формат/Информация : Advanced Video Codec
Профиль формата : High@L4.1
Параметр CABAC формата : Да
Параметр RefFrames формата : 4 кадра
Идентификатор кодека : V_MPEG4/ISO/AVC
Продолжительность : 1 ч. 53 м.
Вид битрейта : Переменный
Битрейт : 5289 Кбит/сек
Максимальный битрейт : 6000 Кбит/сек
Ширина : 1280 пикселей
Высота : 530 пикселей
Соотношение сторон : 2,40:1
Режим частоты кадров : Постоянный
Частота кадров : 23,976 (24000/1001) кадра/сек
Стандарт вещания : Component
Цветовое пространство : YUV
Субдискретизация насыщенности : 4:2:0
Битовая глубина : 8 бит
Тип развёртки : Прогрессивная
Бит/(Пиксели*Кадры) : 0.318
Размер потока : 4,12 Гбайт (91%)
Default : Да
Forced : Нет
Цветовой диапазон : Limited
Основные цвета : BT.709
Характеристики трансфера : BT.709
Коэффициенты матрицы : BT.709

Аудио
Идентификатор : 2
Формат : AC-3
Формат/Информация : Audio Coding 3
Расширение режима : CM (complete main)
Параметр Endianness формата : Big
Идентификатор кодека : A_AC3
Продолжительность : 1 ч. 53 м.
Вид битрейта : Постоянный
Битрейт : 384 Кбит/сек
Каналы : 2 канала
Расположение каналов : Front: L R
Частота : 48,0 КГц
Частота кадров : 31,250 кадров/сек (1536 spf)
Метод сжатия : С потерями
Размер потока : 313 Мбайт (7%)
Default : Да
Forced : Нет

pb.wtf



Скачать Позывной «Бандерас» через торрент https://a.radikal.ru/a08/1902/c8/d48c3f4a5f2e.jpg Скачать фильм Позывной «Бандерас» через торрент бесплантно в хорошем качестве Описание: Опытный вояка, капитан Антон Саенко, которого в отряде все называют по позывному «Бандерас», вот уже двадцать лет не был дома в ... 4.4 10 20
Торрент: Зарегистрирован [2019-02-22 06:51] · скачан: 50 раз
Статус: T временная
Размер: 4.51 GB
Как cкачать? Как скачать Позывной «Бандерас» через торрент | qTorrent

% Раздел Тема Автор DL S | L
T Фильмы (мультфильмы) cо спонсором показа (Новинки AVI/MKV) [ 5.04 GB ] Позывной «Бандерас» [2018 военный WEB-DL 1080p] MVO ["Синема УС"] bober100 Скачать
1 | 0
T Фильмы (мультфильмы) cо спонсором показа (Новинки AVI/MKV) [ 1.46 GB ] Позывной «Бандерас» [2018 военный WEB-DLRip] MVO ["Синема УС"] bober100 Скачать
1 | 0
Фильмы с украинским озвучиванием [ 1.46 GB ] Позывной "Бандерас" / Позивний "Бандерас" [2018 военный WEB-DLRip] [UKR] killermax2013 Скачать
1 | 0

28-11-2019 20:33  

Отключить всю рекламу на сайте

    Дорогой пользователь! Огромная просьба, поблагодарите релизера, оцените раздачу и оставьте свои комментарий, если Вы скачали Позывной «Бандерас» через торрент бесплатно! Внесите свою лепту в развитие PiratBit!
    Комментировать посты могут только пользователи прошедшие не сложную регистрацию
    Показать сообщения:    

    Позывной «Бандерас» через торрент
    Скачать бесплатно Позывной «Бандерас»
    Позывной «Бандерас» скачать торрент
    Позывной «Бандерас» смотреть онлайн
    Cкачать фильм Позывной «Бандерас» бесплатно
    Позывной «Бандерас» скачать торрент в хорошем качестве
    Позывной «Бандерас» смотреть онлайн бесплатно в хорошем качестве


    Вы не можете начинать темы
    Вы не можете отвечать на сообщения
    Вы не можете редактировать свои сообщения
    Вы не можете удалять свои сообщения
    Вы не можете голосовать в опросах
    Вы не можете прикреплять файлы к сообщениям
    Вы можете скачивать файлы