новый адрес пиратбит piratbit
MEGA NEWS Получи личный уникальный адрес сайта и защити себя от блокировок. Внимание количество ограничено!!!

iTunes

1+1

iTunes

мы

iTunes

1

iTunes

Чернобыль

iTunes

Ральф против интернета

Лицензия

ПШазам

Лицензия

Игра престолов

Лицензия

30
pack

ВАЖНО

!!Акция!!

Alien_RageХит недели

RePack

Resident Evil 21

ИГРА 18+

pack

RePack

Metro:Exodus

!!Акция!!

Alien_Rage

RePack

fifa19

RePack

Assassins Creed: Odyssey

RePack

NEED FOR SPEED™ PAYBACK

3 сезон

9 сезон

Бесстыжие 9 сезон

Все сериалы

все сериалы на PB.wtf

RePack

FAR CRY 5
Ребята, катастрофически не хватает 1900р. для оплаты серверов за АВГУСТ (всвязи с блокировками трафик упал в 3 раза), 1-2р., выручайте.
  

Остров / Yi chu hao xi / The Island (Хуан Бо) [2018, комедия, драма, BDRip 1080p] MVO [HDrezka Studio] pb.wtf

Остров через торрент pb.wtf

Размер: 12.24 GB | Добавлен: 8 мес. назад | Торрент скачан:46 раз
Скачать  

22-02-2019 07:52 Остров Скачать торрент  

Остров / Yi chu hao xi / The Island Год выпуска: 2018
Страна: Китай
Жанр: комедия, драма
Продолжительность: 02:13:25
Перевод: Профессиональный (многоголосый) | HDRezka Studio
Субтитры: английские, китайские

Режиссер: Хуан Бо

rating

В ролях:

Хуан Бо , Шу Ци, Баоцян Ван, Исин Чжан, Хэвэй Юй, Ван Сюнь, Ли Циньцинь, Ли Юлунь, Тедди Чан, Гуань Ху

Описание:

Мужчина средних лет на протяжении долгого времени покупал лотерейные билеты, пытаясь сорвать куш и подняться по социальной лестнице. Однажды его рабочий коллектив обычных офисных работников отправляется в небольшое морское путешествие, целью которого является еще большее сплочение дружной команды, другими словами — тимбилдинг. По дороге на мероприятие наш герой наконец-то покупает тот самый счастливый билет с крупным выигрышем. Но день продолжается не так прекрасно, как начался — на судно обрушивается гигантская волна, и выжившие оказываются на отдаленном острове. Никогда раньше для офисных работников тимбилдинг не значил больше, чем будет значить сейчас.

Качество: BDRip 1080p
Формат: MKV

Видео: 1920x856, 12300 kbps, 24 fps
Аудио#1: AC-3, 2 ch, 192 kbps (Rus) - MVO HDRezka Studio
Аудио#2: AC-3, 6 ch, 640 kbps (Chi)
скриншот  скриншот  скриншот  скриншот  скриншот  

Общее
Уникальный идентификатор : 243545437253954312355064980970887979730 (0xB7392521837CE4F7A90B57363B9C22D2)
Полное имя : Остров (Yi chu hao xi) 2018 BDRip 1080p.mkv
Формат : Matroska
Версия формата : Version 2
Размер файла : 12,2 Гбайт
Продолжительность : 2 ч. 13 м.
Общий поток : 13,1 Мбит/сек
Дата кодирования : UTC 2019-02-22 06:44:26
Программа кодирования : mkvmerge v4.0.0 ('The Stars were mine') сборка от Jun 6 2010 16:18:42
Библиотека кодирования : libebml v1.0.0 + libmatroska v1.0.0

Видео
Идентификатор : 1
Формат : AVC
Формат/Информация : Advanced Video Codec
Профиль формата : High@L4.1
Параметр CABAC формата : Да
Параметр ReFrames формата : 5 кадров
Идентификатор кодека : V_MPEG4/ISO/AVC
Продолжительность : 2 ч. 13 м.
Битрейт : 12,3 Мбит/сек
Ширина : 1920 пикселей
Высота : 856 пикселей
Соотношение сторон : 2,25:1
Режим частоты кадров : Постоянный
Частота кадров : 24,000 кадра/сек
Цветовое пространство : YUV
Субдискретизация насыщенности : 4:2:0
Битовая глубина : 8 бит
Тип развёртки : Прогрессивная
Бит/(Пиксели*Кадры) : 0.312
Размер потока : 11,2 Гбайт (92%)
Библиотека кодирования : x264 core 129 r2245 bc13772
Настройки программы : cabac=1 / ref=5 / deblock=1:-3:-3 / analyse=0x3:0x133 / me=umh / subme=11 / psy=1 / psy_rd=1.05:0.05 / mixed_ref=1 / me_range=64 / chroma_me=1 / trellis=2 / 8x8dct=1 / cqm=0 / deadzone=21,11 / fast_pskip=0 / chroma_qp_offset=-3 / threads=12 / lookahead_threads=2 / sliced_threads=0 / nr=0 / decimate=1 / interlaced=0 / bluray_compat=0 / constrained_intra=0 / bframes=8 / b_pyramid=2 / b_adapt=2 / b_bias=0 / direct=3 / weightb=1 / open_gop=0 / weightp=2 / keyint=250 / keyint_min=24 / scenecut=40 / intra_refresh=0 / rc_lookahead=60 / rc=2pass / mbtree=1 / bitrate=12307 / ratetol=1.0 / qcomp=0.60 / qpmin=0 / qpmax=69 / qpstep=4 / cplxblur=20.0 / qblur=0.5 / vbv_maxrate=40000 / vbv_bufsize=30000 / nal_hrd=none / ip_ratio=1.40 / aq=1:0.60
Язык : Chinese
Default : Нет
Forced : Нет

Аудио #1
Идентификатор : 2
Формат : AC-3
Формат/Информация : Audio Coding 3
Расширение режима : CM (complete main)
Параметр Endianness формата : Big
Идентификатор кодека : A_AC3
Продолжительность : 2 ч. 13 м.
Вид битрейта : Постоянный
Битрейт : 192 Кбит/сек
Каналы : 2 канала
Расположение каналов : Front: L R
Частота : 48,0 КГц
Частота кадров : 31,250 кадров/сек (1536 spf)
Метод сжатия : С потерями
Размер потока : 183 Мбайт (1%)
Заголовок : MVO HDRezka Studio
Язык : Russian
Default : Нет
Forced : Нет

Аудио #2
Идентификатор : 3
Формат : AC-3
Формат/Информация : Audio Coding 3
Расширение режима : CM (complete main)
Параметр Endianness формата : Big
Идентификатор кодека : A_AC3
Продолжительность : 2 ч. 13 м.
Вид битрейта : Постоянный
Битрейт : 640 Кбит/сек
Каналы : 6 каналов
Расположение каналов : Front: L C R, Side: L R, LFE
Частота : 48,0 КГц
Частота кадров : 31,250 кадров/сек (1536 spf)
Метод сжатия : С потерями
Размер потока : 611 Мбайт (5%)
Язык : Chinese
Default : Нет
Forced : Нет

Текст #1
Идентификатор : 4
Формат : UTF-8
Идентификатор кодека : S_TEXT/UTF8
Идентификатор кодека/Информация : UTF-8 Plain Text
Язык : English
Default : Нет
Forced : Нет

Текст #2
Идентификатор : 5
Формат : UTF-8
Идентификатор кодека : S_TEXT/UTF8
Идентификатор кодека/Информация : UTF-8 Plain Text
Заголовок : 简体
Язык : Chinese
Default : Нет
Forced : Нет

Текст #3
Идентификатор : 6
Формат : UTF-8
Идентификатор кодека : S_TEXT/UTF8
Идентификатор кодека/Информация : UTF-8 Plain Text
Заголовок : 繁体
Язык : Chinese
Default : Нет
Forced : Нет

pb.wtf



Скачать Остров через торрент https://c.radikal.ru/c29/1902/01/1ad40020b89a.jpg Скачать фильм Остров через торрент бесплантно в хорошем качестве Описание: Мужчина средних лет на протяжении долгого времени покупал лотерейные билеты, пытаясь сорвать куш и подняться по социальной ... 10 10 3
Торрент: Зарегистрирован [2019-02-22 07:52] · скачан: 46 раз
Статус: √ проверено
Размер: 12.24 GB
Как cкачать? Как скачать Остров через торрент | qTorrent

% Раздел Тема Автор DL S | L
Фильмы (Blu-ray, BD-Remux, HDDVD) [ 36.76 GB ] Остров / Yi chu hao xi / The Island [2018 BD Remux 1080р] MVO [HDRezka Studio] bober100 Скачать
1 | 0


>> Регистрируемся здесь <<






Отзывы и комментарии о схеме читаем и пишем здесь: ---> Отзывы и комментарии о схеме

Новые благодарочки в телеграм довольных пользователей:
скриншот   скриншот   скриншот   скриншот   скриншот
    Дорогой пользователь! Огромная просьба, поблагодарите релизера, оцените раздачу и оставьте свои комментарий, если Вы скачали Остров через торрент бесплатно! Внесите свою лепту в развитие PiratBit!
    Комментировать посты могут только пользователи прошедшие не сложную регистрацию
    Показать сообщения:    

    Остров через торрент
    Скачать бесплатно Остров
    Остров скачать торрент
    Остров смотреть онлайн
    Cкачать фильм Остров бесплатно
    Остров скачать торрент в хорошем качестве
    Остров смотреть онлайн бесплатно в хорошем качестве


    Вы не можете начинать темы
    Вы не можете отвечать на сообщения
    Вы не можете редактировать свои сообщения
    Вы не можете удалять свои сообщения
    Вы не можете голосовать в опросах
    Вы не можете прикреплять файлы к сообщениям
    Вы можете скачивать файлы