Ссылка на приватное зеркало нашего сайта всего за 1$. Внимание количество ограничено!!!

2 сезон

iTunes

1 сезон

1

2 сезон

2 сезон

iTunes

1 сезон

RePack

30

Ultimate

ВАЖНО

ИГРА 18+

pack

RePack

MK11
pack

Забери бонус

RePack

jed

!!Акция!!

Alien_Rage

RePack

fifa19

RePack

Assassins Creed: Odyssey

RePack

NEED FOR SPEED™ PAYBACK

4 сезон

9 сезон

Бесстыжие 9 сезон

Все сериалы

все сериалы на PB.wtf

RePack

FAR CRY 5
  

Астрал: Новое измерение / Astral (Крис Мул) [2018, ужасы, фантастика, триллер, драма, WEB-DL 1080p] DUB [iTunes] pb.wtf

Астрал: Новое измерение через торрент pb.wtf

Размер: 2.79 GB | Добавлен: 1 год 9 мес. назад | Торрент скачан:438 раз
Скачать  

22-02-2019 19:20 Астрал: Новое измерение Скачать торрент  

Астрал: Новое измерение / Astral Год выпуска: 2018
Страна: Великобритания
Жанр: ужасы, фантастика, триллер, драма
Продолжительность: 01:20:16
Перевод: Дублированный | iTunes
Субтитры: отсутствуют

Режиссер: Крис Мул

rating

В ролях:

Фрэнк Диллэйн, Катрин Стэдмен, ауд Шах, Ванесса Грасс, Демсон Идрис, Тревор Уайт, Нед Портеус, Марк Аикен, Джульетт Хоуланд, Дженнифер Брук

Описание:

Студент практикует астральные проекции, в попытке встретиться со своей погибшей матерью. После чего он сталкивается с ужасными последствиями, темная фигура теперь преследует его и его близких.

Качество: WEB-DL 1080p
Формат: MKV

Видео: MPEG-4 AVC, 4492 Кбит/с, 1920x804
Аудио: AC3, 6 ch, 384 Кбит/с
скриншот  скриншот  скриншот  скриншот  

General
Unique ID : 234977317069408529670688202265923401534 (0xB0C6FC30CBE45A75A20AD8600A53B73E)
Complete name : Astral.2018.WEB-DL1080p.mkv
Format : Matroska
Format version : Version 2
File size : 2.79 GiB
Duration : 1 h 20 min
Overall bit rate : 4 975 kb/s
Movie name : ELEKTRI4KA.UNIONGANG
Encoded date : UTC 2019-02-22 09:36:15
Writing application : mkvmerge v7.8.0 ('River Man') 32bit built on Apr 3 2015 12:11:22
Writing library : libebml v1.3.1 + libmatroska v1.4.2

Video
ID : 2
Format : AVC
Format/Info : Advanced Video Codec
Format profile : High@L4
Format settings, CABAC : Yes
Format settings, RefFrames : 5 frames
Codec ID : V_MPEG4/ISO/AVC
Duration : 1 h 20 min
Bit rate : 4 492 kb/s
Width : 1 920 pixels
Height : 804 pixels
Display aspect ratio : 2.40:1
Frame rate mode : Constant
Frame rate : 25.000 FPS
Color space : YUV
Chroma subsampling : 4:2:0
Bit depth : 8 bits
Scan type : Progressive
Bits/(Pixel*Frame) : 0.116
Stream size : 2.52 GiB (90%)
Title : ELEKTRI4KA.UNIONGANG
Language : English
Default : Yes
Forced : No
Color range : Limited
Color primaries : BT.709
Transfer characteristics : BT.709
Matrix coefficients : BT.709

Audio
ID : 1
Format : AC-3
Format/Info : Audio Coding 3
Format settings, Endianness : Big
Codec ID : A_AC3
Duration : 1 h 20 min
Bit rate mode : Constant
Bit rate : 384 kb/s
Channel(s) : 6 channels
Channel positions : Front: L C R, Side: L R, LFE
Sampling rate : 48.0 kHz
Frame rate : 31.250 FPS (1536 SPF)
Bit depth : 16 bits
Compression mode : Lossy
Stream size : 220 MiB (8%)
Language : Russian
Service kind : Complete Main
Default : Yes
Forced : No

pb.wtf



Скачать Астрал: Новое измерение через торрент https://b.radikal.ru/b09/1812/d2/e42a6bf6ae42.jpg Скачать фильм Астрал: Новое измерение через торрент бесплантно в хорошем качестве Описание: Студент практикует астральные проекции, в попытке встретиться со своей погибшей матерью. После чего он сталкивается с ужасными ... 8.3 10 10
Торрент: Зарегистрирован [2019-02-22 19:20] · скачан: 438 раз
Статус: √ проверено
Размер: 2.79 GB
Как cкачать? Как скачать Астрал: Новое измерение через торрент | qTorrent

% Раздел Тема Автор DL S | L
Фильмы 2018 [DVDrip, WEB-DLRip, HDrip] (DUB, MVO) [ 1.37 GB ] Астрал: Новое измерение / Astral [2018 WEB-DLRip] bober100 Скачать
1 | 0
Фильмы 2018 [DVDrip, WEB-DLRip, HDrip] (DUB, MVO) [ 1.52 GB ] Астрал: Новое измерение / Astral [2018 WEB-DLRip-AVC] bober100 Скачать
1 | 0

28-11-2019 20:33  

Отключить всю рекламу на сайте

23-02-2019 14:43 Астрал: Новое измерение Скачать торрент  

Чушь нереальная! Полтора часа потрачено зря! Ничего общего с другими астралами не имеет! весь фильм ждал чего то необычного, но к сожалению фильм вообще ни о чемpb.wtf



    Дорогой пользователь! Огромная просьба, поблагодарите релизера, оцените раздачу и оставьте свои комментарий, если Вы скачали Астрал: Новое измерение через торрент бесплатно! Внесите свою лепту в развитие PiratBit!
    Комментировать посты могут только пользователи прошедшие не сложную регистрацию
    Показать сообщения:    

    Астрал: Новое измерение через торрент
    Скачать бесплатно Астрал: Новое измерение
    Астрал: Новое измерение скачать торрент
    Астрал: Новое измерение смотреть онлайн
    Cкачать фильм Астрал: Новое измерение бесплатно
    Астрал: Новое измерение скачать торрент в хорошем качестве
    Астрал: Новое измерение смотреть онлайн бесплатно в хорошем качестве


    Вы не можете начинать темы
    Вы не можете отвечать на сообщения
    Вы не можете редактировать свои сообщения
    Вы не можете удалять свои сообщения
    Вы не можете голосовать в опросах
    Вы не можете прикреплять файлы к сообщениям
    Вы можете скачивать файлы