Ссылка на приватное зеркало всего за 1$. Внимание количество ограничено!!!

OK

1+1

iTunes

мы

OK

1

WEB-DLRip

Джокер

Пифагор

Ведьмак / The Witcher сериал

Лицензия

ПШазам

ОК

Оно 2

iTunes

30
pack

Вам бонус

ВАЖНО

!!Акция!!

Alien_RageХит недели

RePack

Resident Evil 21

ИГРА 18+

pack

RePack

jed

!!Акция!!

Alien_Rage

RePack

fifa19

RePack

Assassins Creed: Odyssey

RePack

NEED FOR SPEED™ PAYBACK

4 сезон

9 сезон

Бесстыжие 9 сезон

Все сериалы

все сериалы на PB.wtf

RePack

FAR CRY 5
  

Маэстро / The Maestro (Адам Кашман) [2018, Драма, биография, история, музыка, WEB-DL 720p] MVO ["Синема УС"] pb.wtf

Маэстро через торрент pb.wtf

Размер: 3.83 GB | Добавлен: 10 мес. назад | Торрент скачан:5 раз
Скачать  

23-02-2019 06:37 Маэстро Скачать торрент  

Маэстро / The MaestroГод выпуска: 2018
Страна: США
Жанр: Драма, биография, история, музыка
Продолжительность: 01:37:14
Перевод: Любительский (многоголосый) | "Синема УС"
Субтитры: отсутствуют

Режиссер: Адам Кашман

rating

В ролях:

Ксандер Беркли, Сара Кларк, Кристен Гутоски, Бобби Кампо, МакКензи Эстин, Уильям Расс, Александра Эссоу, Ленни фон Долен, Джон Полито, Джон Уайт

Описание:

После окончания Второй Мировой войны начинающий композитор музыки для кино Джерри Хёрст переезжает в Голливуд, обучаться у неизвестного преподавателя Марио Кастельнуово-Тедеско.

Качество: WEB-DL 720p
Формат: MKV

Видео: h.264,5 246 Кбит/с, 1280x530
Аудио#1: Русский, (AC3, 2 ch, 384 Кбит/с)
скриншот  скриншот  скриншот  

Общее
Уникальный идентификатор : 221763204606178107911342887725796115350 (0xA6D60A254914D0D19DD24546C1A74396)
Полное имя : D:\The.Maestro.2018.P.WEB-DL.72Op.mkv
Формат : Matroska
Версия формата : Version 2
Размер файла : 3,83 Гбайт
Продолжительность : 1 ч. 37 м.
Режим общего битрейта : Переменный
Общий поток : 5632 Кбит/сек
Дата кодирования : UTC 2019-02-22 15:06:06
Программа кодирования : mkvmerge v8.3.0 ('Over the Horizon') 64bit
Библиотека кодирования : libebml v1.3.1 + libmatroska v1.4.2

Видео
Идентификатор : 1
Формат : AVC
Формат/Информация : Advanced Video Codec
Профиль формата : High@L4.1
Параметр CABAC формата : Да
Параметр RefFrames формата : 4 кадра
Идентификатор кодека : V_MPEG4/ISO/AVC
Продолжительность : 1 ч. 37 м.
Вид битрейта : Переменный
Битрейт : 5246 Кбит/сек
Максимальный битрейт : 6000 Кбит/сек
Ширина : 1280 пикселей
Высота : 530 пикселей
Соотношение сторон : 2,40:1
Режим частоты кадров : Постоянный
Частота кадров : 23,976 (24000/1001) кадра/сек
Стандарт вещания : Component
Цветовое пространство : YUV
Субдискретизация насыщенности : 4:2:0
Битовая глубина : 8 бит
Тип развёртки : Прогрессивная
Бит/(Пиксели*Кадры) : 0.316
Размер потока : 3,49 Гбайт (91%)
Default : Да
Forced : Нет
Цветовой диапазон : Limited
Основные цвета : BT.709
Характеристики трансфера : BT.709
Коэффициенты матрицы : BT.709

Аудио
Идентификатор : 2
Формат : AC-3
Формат/Информация : Audio Coding 3
Расширение режима : CM (complete main)
Параметр Endianness формата : Big
Идентификатор кодека : A_AC3
Продолжительность : 1 ч. 37 м.
Вид битрейта : Постоянный
Битрейт : 384 Кбит/сек
Каналы : 2 канала
Расположение каналов : Front: L R
Частота : 48,0 КГц
Частота кадров : 31,250 кадров/сек (1536 spf)
Метод сжатия : С потерями
Размер потока : 267 Мбайт (7%)
Default : Да
Forced : Нет

pb.wtf



Скачать Маэстро через торрент https://c.radikal.ru/c05/1902/bb/019137224e55.jpg Скачать фильм Маэстро через торрент бесплантно в хорошем качестве Описание: После окончания Второй Мировой войны начинающий композитор музыки для кино Джерри Хёрст переезжает в Голливуд, обучаться у ... 10 10 3
Торрент: Зарегистрирован [2019-02-23 06:37] · скачан: 5 раз
Статус: T временная
Размер: 3.83 GB
Как cкачать? Как скачать Маэстро через торрент | qTorrent

% Раздел Тема Автор DL S | L
T Фильмы (мультфильмы) cо спонсором показа (Новинки AVI/MKV) [ 1.35 GB ] Маэстро / The Maestro [2018 биография история музыка WEB-DLRip] MVO ["Синема УС"] bober100 Скачать
1 | 0

28-11-2019 20:33  

Отключить всю рекламу на сайте

    Дорогой пользователь! Огромная просьба, поблагодарите релизера, оцените раздачу и оставьте свои комментарий, если Вы скачали Маэстро через торрент бесплатно! Внесите свою лепту в развитие PiratBit!
    Комментировать посты могут только пользователи прошедшие не сложную регистрацию
    Показать сообщения:    

    Маэстро через торрент
    Скачать бесплатно Маэстро
    Маэстро скачать торрент
    Маэстро смотреть онлайн
    Cкачать фильм Маэстро бесплатно
    Маэстро скачать торрент в хорошем качестве
    Маэстро смотреть онлайн бесплатно в хорошем качестве


    Вы не можете начинать темы
    Вы не можете отвечать на сообщения
    Вы не можете редактировать свои сообщения
    Вы не можете удалять свои сообщения
    Вы не можете голосовать в опросах
    Вы не можете прикреплять файлы к сообщениям
    Вы можете скачивать файлы