новый адрес
Ссылка на приватное зеркало всего за 1$. Внимание количество ограничено!!!

iTunes

1+1

iTunes

мы

iTunes

1

iTunes

Чернобыль

iTunes

Ральф против интернета

Лицензия

ПШазам

Лицензия

Оно 2

Лицензия

30
pack

Вам бонус

ВАЖНО

!!Акция!!

Alien_RageХит недели

RePack

Resident Evil 21

ИГРА 18+

pack

RePack

jed

!!Акция!!

Alien_Rage

RePack

fifa19

RePack

Assassins Creed: Odyssey

RePack

NEED FOR SPEED™ PAYBACK

3 сезон

9 сезон

Бесстыжие 9 сезон

Все сериалы

все сериалы на PB.wtf

RePack

FAR CRY 5
Ребята, катастрофически не хватает 1900р. для оплаты серверов за Октябрь (всвязи с блокировками трафик упал в 3 раза), 1-2р., выручайте.
  

Непотопляемые / Le grand bain (Жиль Леллуш) [2018, драма, комедия, спорт, BDRip-AVC] DUB [iTunes] pb.wtf

Непотопляемые через торрент pb.wtf

Размер: 1.83 GB | Добавлен: 9 мес. назад | Торрент скачан:54 раза
Скачать  

23-02-2019 18:31 Непотопляемые Скачать торрент  

Непотопляемые / Le grand bain Год выпуска: 2018
Страна: Франция
Жанр: драма, комедия, спорт
Продолжительность: 02:01:43
Перевод: Дублированный | iTunes
Субтитры: Русские (полные)

Режиссер: Жиль Леллуш

rating

В ролях:

Матьё Амальрик, Гийом Кане, Бенуа Пульворд, Жан-Юг Англад, Виржини Эфира, Лейла Бехти, Марина Фоис, Филипп Катрин, Феликс Моати, Элбан Иванов

Описание:

Настоящие мужчины никогда не сдаются, и если уж решили чем-то всерьез увлечься, то их ничто не остановит. Вот и во Франции великолепная семерка собирается вместе, чтобы сбежать от тягот обыденной взрослой жизни совершенно неожиданным образом. Ведь когда проблемы тянут ко дну, важно оставаться непотопляемыми!

Качество: BDRip-AVC
Формат: MKV

Видео: 1024x428 (2.40:1), 23,976 fps, x264 ~1 769 kbps avg, 0.168 bit/pixel
Аудио: 48 kHz, AC3 Dolby Digital Plus, 3/2 (L,C,R,l,r) + LFE ch, ~384.00 kbps avg | RUS (iTunes)
скриншот  скриншот  скриншот  скриншот  скриншот  

Общее
Уникальный идентификатор : 266118563512506069090636562249782886289 (0xC834922E899691FF69CD96632C037F91)
Полное имя : F:OlLanDGroupLe.Grand.Bain.2018.BDRip(AVC).OlLanDGroup.mkv
Формат : Matroska
Версия формата : Version 4 / Version 2
Размер файла : 1,83 Гбайт
Продолжительность : 2 ч. 1 м.
Общий поток : 2154 Кбит/сек
Название фильма : Le grand bain 2018 #TorpedoUK#
Дата кодирования : UTC 2019-02-23 16:01:22
Программа кодирования : mkvmerge v29.0.0 ('Like It Or Not') 64-bit
Библиотека кодирования : libebml v1.3.6 + libmatroska v1.4.9

Видео
Идентификатор : 1
Формат : AVC
Формат/Информация : Advanced Video Codec
Профиль формата : High@L4.1
Параметр CABAC формата : Да
Параметр ReFrames формата : 10 кадров
Идентификатор кодека : V_MPEG4/ISO/AVC
Продолжительность : 2 ч. 1 м.
Битрейт : 1769 Кбит/сек
Ширина : 1024 пикселя
Высота : 428 пикселей
Соотношение сторон : 2,40:1
Режим частоты кадров : Постоянный
Частота кадров : 23,976 (24000/1001) кадра/сек
Цветовое пространство : YUV
Субдискретизация насыщенности : 4:2:0
Битовая глубина : 8 бит
Тип развёртки : Прогрессивная
Бит/(Пиксели*Кадры) : 0.168
Размер потока : 1,50 Гбайт (82%)
Библиотека кодирования : x264 core 146 r2538 121396c
Настройки программы : cabac=1 / ref=10 / deblock=1:-3:-3 / analyse=0x3:0x113 / me=umh / subme=11 / psy=1 / psy_rd=0.99:0.04 / mixed_ref=1 / me_range=48 / chroma_me=1 / trellis=2 / 8x8dct=1 / cqm=0 / deadzone=21,11 / fast_pskip=1 / chroma_qp_offset=-3 / threads=6 / lookahead_threads=1 / sliced_threads=0 / nr=0 / decimate=1 / interlaced=0 / bluray_compat=0 / constrained_intra=0 / bframes=11 / b_pyramid=2 / b_adapt=2 / b_bias=0 / direct=3 / weightb=1 / open_gop=0 / weightp=2 / keyint=240 / keyint_min=23 / scenecut=40 / intra_refresh=0 / rc_lookahead=40 / rc=2pass / mbtree=0 / bitrate=1769 / ratetol=1.0 / qcomp=0.60 / qpmin=0 / qpmax=69 / qpstep=4 / cplxblur=20.0 / qblur=0.5 / vbv_maxrate=50000 / vbv_bufsize=62500 / nal_hrd=none / filler=0 / ip_ratio=1.40 / pb_ratio=1.30 / aq=1:1.00
Язык : English
Default : Да
Forced : Нет

Аудио
Идентификатор : 2
Формат : AC-3
Формат/Информация : Audio Coding 3
Расширение режима : CM (complete main)
Параметр Endianness формата : Big
Идентификатор кодека : A_AC3
Продолжительность : 2 ч. 1 м.
Вид битрейта : Постоянный
Битрейт : 384 Кбит/сек
Каналы : 6 каналов
Расположение каналов : Front: L C R, Side: L R, LFE
Частота : 48,0 КГц
Частота кадров : 31,250 кадров/сек (1536 spf)
Битовая глубина : 16 бит
Метод сжатия : С потерями
Размер потока : 334 Мбайт (18%)
Заголовок : DUB [iTunes]
Язык : Russian
Default : Да
Forced : Да

Текст
Идентификатор : 3
Формат : UTF-8
Идентификатор кодека : S_TEXT/UTF8
Идентификатор кодека/Информация : UTF-8 Plain Text
Продолжительность : 1 ч. 55 м.
Битрейт : 103 бит/сек
Count of elements : 1294
Размер потока : 87,4 Кбайт (0%)
Заголовок : Full
Язык : Russian
Default : Нет
Forced : Нет

Меню
00:00:00.000 : en:Глава 01
00:07:52.180 : en:Глава 02
00:16:01.460 : en:Глава 03
00:25:48.672 : en:Глава 04
00:36:19.094 : en:Глава 05
00:46:01.592 : en:Глава 06
00:56:54.828 : en:Глава 07
01:07:31.798 : en:Глава 08
01:21:15.746 : en:Глава 09
01:31:18.932 : en:Глава 10
01:44:24.049 : en:Глава 11
01:56:03.582 : en:Глава 12

pb.wtf



Скачать Непотопляемые через торрент https://a.radikal.ru/a22/1902/06/a7b7dd8c503c.jpg Скачать фильм Непотопляемые через торрент бесплантно в хорошем качестве Описание: Настоящие мужчины никогда не сдаются, и если уж решили чем-то всерьез увлечься, то их ничто не остановит. Вот и во Франции ... 10 10 3
Info! Золотая раздача, скачанное не засчитывается.
Торрент: Зарегистрирован [2019-02-23 18:31] · скачан: 54 раз
Статус: √ проверено
Размер: 1.83 GB
Как cкачать? Как скачать Непотопляемые через торрент | qTorrent

% Раздел Тема Автор DL S | L
Фильмы 2018 [DVDrip, WEB-DLRip, HDrip] (DUB, MVO) [ 1.41 GB ] Непотопляемые / Le grand bain [2018 BDRip] bober100 Скачать
1 | 0
Фильмы 2018 [DVDrip, WEB-DLRip, HDrip] (DUB, MVO) [ 2.13 GB ] Непотопляемые / Le grand bain [2018 BDRip] bober100 Скачать
1 | 0
Фильмы [HD 720p, 1080p] (Хороший звук DUB, MVO) [ 12.56 GB ] Непотопляемые / Le grand bain [2018 BDRip 1080p] DUB bober100 Скачать
2 | 0
Фильмы [HD 720p, 1080p] (Хороший звук DUB, MVO) [ 6.19 GB ] Непотопляемые / Le grand bain [2018 BDRip 720p] DUB bober100 Скачать
2 | 0
Фильмы (Blu-ray, BD-Remux, HDDVD) [ 33.66 GB ] Непотопляемые / Le grand bain [2018 BD Remux 1080p] DUB bober100 Скачать
1 | 0
Фильмы (WEB-DL 720p, 1080p) [ 4.5 GB ] Непотопляемые / Le grand bain [2018 WEB-DL 1080p] DUB bober100 Скачать
1 | 0
Отключить всю рекламу на сайте
    Дорогой пользователь! Огромная просьба, поблагодарите релизера, оцените раздачу и оставьте свои комментарий, если Вы скачали Непотопляемые через торрент бесплатно! Внесите свою лепту в развитие PiratBit!
    Комментировать посты могут только пользователи прошедшие не сложную регистрацию
    Показать сообщения:    

    Непотопляемые через торрент
    Скачать бесплатно Непотопляемые
    Непотопляемые скачать торрент
    Непотопляемые смотреть онлайн
    Cкачать фильм Непотопляемые бесплатно
    Непотопляемые скачать торрент в хорошем качестве
    Непотопляемые смотреть онлайн бесплатно в хорошем качестве


    Вы не можете начинать темы
    Вы не можете отвечать на сообщения
    Вы не можете редактировать свои сообщения
    Вы не можете удалять свои сообщения
    Вы не можете голосовать в опросах
    Вы не можете прикреплять файлы к сообщениям
    Вы можете скачивать файлы