новый адрес
Ссылка на приватное зеркало всего за 1$. Внимание количество ограничено!!!

iTunes

1+1

iTunes

мы

WEB-DL

1

iTunes

Чернобыль

iTunes

Ральф против интернета

Лицензия

ПШазам

Лицензия

Оно 2

Лицензия

30
pack

Вам бонус

ВАЖНО

!!Акция!!

Alien_RageХит недели

RePack

Resident Evil 21

ИГРА 18+

pack

RePack

jed

!!Акция!!

Alien_Rage

RePack

fifa19

RePack

Assassins Creed: Odyssey

RePack

NEED FOR SPEED™ PAYBACK

3 сезон

9 сезон

Бесстыжие 9 сезон

Все сериалы

все сериалы на PB.wtf

RePack

FAR CRY 5
Ребята, катастрофически не хватает 1900р. для оплаты серверов за Октябрь (всвязи с блокировками трафик упал в 3 раза), 1-2р., выручайте.
  

Тёмное зеркало / Look Away (Асаф Бернштейн) [2018, Ужасы, триллер, BDRip-AVC] DUB [iTunes] pb.wtf

Тёмное зеркало через торрент pb.wtf

Размер: 1.9 GB | Добавлен: 9 мес. назад | Торрент скачан:207 раз
Скачать  

23-02-2019 18:54 Тёмное зеркало Скачать торрент  

Тёмное зеркало / Look Away Год выпуска: 2018
Страна: Канада, США
Жанр: Ужасы, триллер
Продолжительность: 01:43:39
Перевод: Дублированный | iTunes
Субтитры: Русские (полные, ненорм. лексика), Английские (полные)

Режиссер: Асаф Бернштейн

rating

В ролях:

Индиа Айсли, Джейсон Айзекс, Пенелопа Митчелл, Мира Сорвино, Харрисон Гилбертсон, Кристен Харрис, Адам Хертиг, Джон С. МакДональд, Коннор Питерсон, Кристина Сеговиа

Описание:

Презираемая сверстниками в школе Мария пребывает в тяжелом психологическом состоянии. У девушки не самые лучшие отношения с родителями, у неё нет ни единого друга, а нападки недоброжелателей постепенно доходят до проявлений физического насилия. Собственное отражение в зеркале давно стало для девушки единственным приятным собеседником, но в один момент оно начинает не только общаться с ней — отражение берет на себя решение всех проблем Марии и приступает к действию, используя самые страшные средства и оставив саму Марию в качестве наблюдателя по ту сторону зеркала…

Качество: BDRip-AVC
Формат: MKV

Видео: 1024x426 (2.40:1), 23,976 fps, x264 ~1 795 kbps avg, 0.172 bit/pixel
Аудио#1: 48 kHz, AC3 Dolby Digital, 3/2 (L,C,R,l,r) + LFE ch, ~384.00 kbps avg | RUS (iTunes)
Аудио#2: 48 kHz, AC3 Dolby Digital, 3/2 (L,C,R,l,r) + LFE ch, ~448.00 kbps avg | ENG
скриншот  скриншот  скриншот  скриншот  скриншот  

Общее
Уникальный идентификатор : 215349559567549733382596033484745271936 (0xA202D107FD8E829026C56F01F8D2EA80)
Полное имя : F:OlLanDGroupLook.Away.2018.BDRip(AVC).OlLanDGroup.mkv
Формат : Matroska
Версия формата : Version 4 / Version 2
Размер файла : 1,90 Гбайт
Продолжительность : 1 ч. 43 м.
Общий поток : 2625 Кбит/сек
Название фильма : Look.Away.2018 #TorpedoUK#
Дата кодирования : UTC 2019-02-23 14:08:45
Программа кодирования : mkvmerge v29.0.0 ('Like It Or Not') 64-bit
Библиотека кодирования : libebml v1.3.6 + libmatroska v1.4.9

Видео
Идентификатор : 1
Формат : AVC
Формат/Информация : Advanced Video Codec
Профиль формата : High@L4.1
Параметр CABAC формата : Да
Параметр ReFrames формата : 10 кадров
Идентификатор кодека : V_MPEG4/ISO/AVC
Продолжительность : 1 ч. 43 м.
Битрейт : 1795 Кбит/сек
Ширина : 1024 пикселя
Высота : 426 пикселей
Соотношение сторон : 2,40:1
Режим частоты кадров : Постоянный
Частота кадров : 23,976 (24000/1001) кадра/сек
Цветовое пространство : YUV
Субдискретизация насыщенности : 4:2:0
Битовая глубина : 8 бит
Тип развёртки : Прогрессивная
Бит/(Пиксели*Кадры) : 0.172
Размер потока : 1,30 Гбайт (68%)
Библиотека кодирования : x264 core 146 r2538 121396c
Настройки программы : cabac=1 / ref=10 / deblock=1:-3:-3 / analyse=0x3:0x113 / me=umh / subme=11 / psy=1 / psy_rd=0.99:0.04 / mixed_ref=1 / me_range=48 / chroma_me=1 / trellis=2 / 8x8dct=1 / cqm=0 / deadzone=21,11 / fast_pskip=1 / chroma_qp_offset=-3 / threads=6 / lookahead_threads=1 / sliced_threads=0 / nr=0 / decimate=1 / interlaced=0 / bluray_compat=0 / constrained_intra=0 / bframes=11 / b_pyramid=2 / b_adapt=2 / b_bias=0 / direct=3 / weightb=1 / open_gop=0 / weightp=2 / keyint=240 / keyint_min=23 / scenecut=40 / intra_refresh=0 / rc_lookahead=40 / rc=2pass / mbtree=0 / bitrate=1795 / ratetol=1.0 / qcomp=0.60 / qpmin=0 / qpmax=69 / qpstep=4 / cplxblur=20.0 / qblur=0.5 / vbv_maxrate=50000 / vbv_bufsize=62500 / nal_hrd=none / filler=0 / ip_ratio=1.40 / pb_ratio=1.30 / aq=1:1.00
Язык : English
Default : Да
Forced : Нет

Аудио #1
Идентификатор : 2
Формат : AC-3
Формат/Информация : Audio Coding 3
Расширение режима : CM (complete main)
Параметр Endianness формата : Big
Идентификатор кодека : A_AC3
Продолжительность : 1 ч. 43 м.
Вид битрейта : Постоянный
Битрейт : 384 Кбит/сек
Каналы : 6 каналов
Расположение каналов : Front: L C R, Side: L R, LFE
Частота : 48,0 КГц
Частота кадров : 31,250 кадров/сек (1536 spf)
Битовая глубина : 16 бит
Метод сжатия : С потерями
Размер потока : 285 Мбайт (15%)
Заголовок : DUB [iTunes]
Язык : Russian
Default : Да
Forced : Нет

Аудио #2
Идентификатор : 3
Формат : AC-3
Формат/Информация : Audio Coding 3
Расширение режима : CM (complete main)
Параметр Endianness формата : Big
Идентификатор кодека : A_AC3
Продолжительность : 1 ч. 43 м.
Вид битрейта : Постоянный
Битрейт : 448 Кбит/сек
Каналы : 6 каналов
Расположение каналов : Front: L C R, Side: L R, LFE
Частота : 48,0 КГц
Частота кадров : 31,250 кадров/сек (1536 spf)
Битовая глубина : 16 бит
Метод сжатия : С потерями
Размер потока : 332 Мбайт (17%)
Заголовок : [Original]
Язык : English
Default : Нет
Forced : Нет

Текст #1
Идентификатор : 4
Формат : UTF-8
Идентификатор кодека : S_TEXT/UTF8
Идентификатор кодека/Информация : UTF-8 Plain Text
Продолжительность : 1 ч. 35 м.
Битрейт : 47 бит/сек
Count of elements : 774
Размер потока : 32,9 Кбайт (0%)
Заголовок : Full
Язык : Russian
Default : Нет
Forced : Нет

Текст #2
Идентификатор : 5
Формат : UTF-8
Идентификатор кодека : S_TEXT/UTF8
Идентификатор кодека/Информация : UTF-8 Plain Text
Продолжительность : 1 ч. 39 м.
Битрейт : 30 бит/сек
Count of elements : 802
Размер потока : 22,7 Кбайт (0%)
Заголовок : Full
Язык : English
Default : Нет
Forced : Нет

Меню
00:00:00.000 : :Глава 01
00:10:36.219 : :Глава 02
00:19:55.820 : :Глава 03
00:26:28.796 : :Глава 04
00:35:57.947 : :Глава 05
00:43:52.630 : :Глава 06
00:53:10.896 : :Глава 07
01:01:52.459 : :Глава 08
01:09:05.641 : :Глава 09
01:17:10.042 : :Глава 10
01:24:25.811 : :Глава 11
01:37:18.708 : :Глава 12

pb.wtf



Скачать Тёмное зеркало через торрент https://i110.fastpic.ru/big/2019/0202/02/711d1f754f4923508eeb782553d84902.jpg Скачать фильм Тёмное зеркало через торрент бесплантно в хорошем качестве Описание: Презираемая сверстниками в школе Мария пребывает в тяжелом психологическом состоянии. У девушки не самые лучшие отношения с ... 8.2 10 5
Торрент: Зарегистрирован [2019-02-23 18:54] · скачан: 207 раз
Статус: √ проверено
Размер: 1.9 GB
Как cкачать? Как скачать Тёмное зеркало через торрент | qTorrent

% Раздел Тема Автор DL S | L
Фильмы 2018 [DVDrip, WEB-DLRip, HDrip] (DUB, MVO) [ 1.41 GB ] Тёмное зеркало / Look Away [2018 BDRip] - Twi7ter Скачать
2 | 0
Фильмы (WEB-DL 720p, 1080p) [ 3.86 GB ] Тёмное зеркало / Look Away [2018 WEB-DL 1080p] Dub () Skandar2019 Скачать
2 | 0
Фильмы [HD 720p, 1080p] (Хороший звук DUB, MVO) [ 5.75 GB ] Тёмное зеркало / Look Away [2018 BDRip 720p] MVO [HDrezka Studio] + bober100 Скачать
1 | 0
Фильмы [HD 720p, 1080p] (Хороший звук DUB, MVO) [ 7.02 GB ] Тёмное зеркало / Look Away [2018 BDRip 1080p] MVO [HDrezka Studio] + bober100 Скачать
1 | 0
Фильмы 2018 [DVDrip, WEB-DLRip, HDrip] (DUB, MVO) [ 1.41 GB ] Тёмное зеркало / Look Away [2018 BDRip] bober100 Скачать
1 | 0
Фильмы 2018 [DVDrip, WEB-DLRip, HDrip] (DUB, MVO) [ 2.01 GB ] Тёмное зеркало / Look Away [2018 WEB-DLRip-AVC] MVO [HDRezka Studio] + bober100 Скачать
4 | 0
T Фильмы с украинским озвучиванием [ 3.72 GB ] Тёмное зеркало / Look Away [2018 WEB-DL 1080p] [Ukr DUB] killermax2013 Скачать
1 | 0

28-11-2019 20:33  

Отключить всю рекламу на сайте

    Дорогой пользователь! Огромная просьба, поблагодарите релизера, оцените раздачу и оставьте свои комментарий, если Вы скачали Тёмное зеркало через торрент бесплатно! Внесите свою лепту в развитие PiratBit!
    Комментировать посты могут только пользователи прошедшие не сложную регистрацию
    Показать сообщения:    

    Тёмное зеркало через торрент
    Скачать бесплатно Тёмное зеркало
    Тёмное зеркало скачать торрент
    Тёмное зеркало смотреть онлайн
    Cкачать фильм Тёмное зеркало бесплатно
    Тёмное зеркало скачать торрент в хорошем качестве
    Тёмное зеркало смотреть онлайн бесплатно в хорошем качестве


    Вы не можете начинать темы
    Вы не можете отвечать на сообщения
    Вы не можете редактировать свои сообщения
    Вы не можете удалять свои сообщения
    Вы не можете голосовать в опросах
    Вы не можете прикреплять файлы к сообщениям
    Вы можете скачивать файлы