Marvel's Avengers Deluxe Edition (супер цена) 159р. Внимание количество ограничено!!!

2 сезон

iTunes

iTunes

1

iTunes

iTunes

iTunes

WEBRip

iTunes

30
pack

Новость дня

ВАЖНО

!!Акция!!

Alien_RageХит недели

RePack

Horizon Zero Dawn

ИГРА 18+

pack

RePack

jed

!!Акция!!

Alien_Rage

RePack

fifa19

RePack

Assassins Creed: Odyssey

RePack

NEED FOR SPEED™ PAYBACK

4 сезон

9 сезон

Бесстыжие 9 сезон

Все сериалы

все сериалы на PB.wtf

RePack

FAR CRY 5
  

Тень позади тебя / The Shadow Behind You (Сан Банарье) [2015, триллер, криминал, детектив, WEB-DL 720p] MVO ["Синема УС"] pb.wtf

Тень позади тебя через торрент pb.wtf

Размер: 3.21 GB | Добавлен: 1 год 6 мес. назад | Торрент скачан:13 раз
Скачать  

23-02-2019 19:12 Тень позади тебя Скачать торрент  

Тень позади тебя / The Shadow Behind You Год выпуска: 2015
Страна: США
Жанр: триллер, криминал, детектив
Продолжительность: 01:23:12
Перевод: Любительский (многоголосый) | "Синема УС"
Субтитры: отсутствуют

Режиссер: Сан Банарье

rating

В ролях:

Шон Зам, Жасмин Дарби, Дерек Гаскамп, Триша Рэй, Эдди Агирре, Эвелин Хастингс, Сан Банарье, Элиз Мартин, Тьяго Паес, Крис Смит

Описание:

Разношерстная группа кинематографистов снимает малобюджетный фильм на изолированном острове и, в связи со штормовым предупреждением, вынуждена перенести съемки в заброшенный госпиталь с дурной репутацией. Отношения между членами съемочной группы накаляются до предела, и, вскоре, один за другим, они начинают бесследно исчезать.

Качество: WEB-DL 720p
Формат: MKV

Видео: MKV, 5129 Кбит/с, 1280x720
Аудио#1: Русский, (AC3, 2 ch, 384 Кбит/с)
скриншот  скриншот  скриншот  

Общее
Уникальный идентификатор : 198761311592199165806348415311093613871 (0x95880942F7F681A38C8D94490D02C52F)
Полное имя : D:\The.Shadow.Behind.You.2015.P.WEB-DL.72Op_KOSHARA.mkv
Формат : Matroska
Версия формата : Version 2
Размер файла : 3,21 Гбайт
Продолжительность : 1 ч. 23 м.
Режим общего битрейта : Переменный
Общий поток : 5515 Кбит/сек
Дата кодирования : UTC 2019-02-23 15:47:11
Программа кодирования : mkvmerge v8.3.0 ('Over the Horizon') 64bit
Библиотека кодирования : libebml v1.3.1 + libmatroska v1.4.2

Видео
Идентификатор : 1
Формат : AVC
Формат/Информация : Advanced Video Codec
Профиль формата : High@L4.1
Параметр CABAC формата : Да
Параметр RefFrames формата : 4 кадра
Идентификатор кодека : V_MPEG4/ISO/AVC
Продолжительность : 1 ч. 23 м.
Вид битрейта : Переменный
Битрейт : 5129 Кбит/сек
Максимальный битрейт : 6000 Кбит/сек
Ширина : 1280 пикселей
Высота : 720 пикселей
Соотношение сторон : 16:9
Режим частоты кадров : Постоянный
Частота кадров : 23,976 (24000/1001) кадра/сек
Стандарт вещания : Component
Цветовое пространство : YUV
Субдискретизация насыщенности : 4:2:0
Битовая глубина : 8 бит
Тип развёртки : Прогрессивная
Бит/(Пиксели*Кадры) : 0.227
Размер потока : 2,92 Гбайт (91%)
Default : Да
Forced : Нет
Цветовой диапазон : Limited
Основные цвета : BT.709
Характеристики трансфера : BT.709
Коэффициенты матрицы : BT.709

Аудио
Идентификатор : 2
Формат : AC-3
Формат/Информация : Audio Coding 3
Расширение режима : CM (complete main)
Параметр Endianness формата : Big
Идентификатор кодека : A_AC3
Продолжительность : 1 ч. 23 м.
Вид битрейта : Постоянный
Битрейт : 384 Кбит/сек
Каналы : 2 канала
Расположение каналов : Front: L R
Частота : 48,0 КГц
Частота кадров : 31,250 кадров/сек (1536 spf)
Метод сжатия : С потерями
Размер потока : 229 Мбайт (7%)
Default : Да
Forced : Нет

pb.wtf



Скачать Тень позади тебя через торрент https://d.radikal.ru/d30/1902/b3/8099c1997b93.jpg Скачать фильм Тень позади тебя через торрент бесплантно в хорошем качестве Описание: Разношерстная группа кинематографистов снимает малобюджетный фильм на изолированном острове и, в связи со штормовым ... 10 10 4
Торрент: Зарегистрирован [2019-02-23 19:12] · скачан: 13 раз
Статус: T временная
Размер: 3.21 GB
Как cкачать? Как скачать Тень позади тебя через торрент | qTorrent

% Раздел Тема Автор DL S | L
T Фильмы (мультфильмы) cо спонсором показа (Новинки AVI/MKV) [ 1.37 GB ] Тень позади тебя / The Shadow Behind You [2015 WEB-DLRip] MVO ["Синема УС"] bober100 Скачать
1 | 0

28-11-2019 20:33  

Отключить всю рекламу на сайте

    Дорогой пользователь! Огромная просьба, поблагодарите релизера, оцените раздачу и оставьте свои комментарий, если Вы скачали Тень позади тебя через торрент бесплатно! Внесите свою лепту в развитие PiratBit!
    Комментировать посты могут только пользователи прошедшие не сложную регистрацию
    Показать сообщения:    

    Тень позади тебя через торрент
    Скачать бесплатно Тень позади тебя
    Тень позади тебя скачать торрент
    Тень позади тебя смотреть онлайн
    Cкачать фильм Тень позади тебя бесплатно
    Тень позади тебя скачать торрент в хорошем качестве
    Тень позади тебя смотреть онлайн бесплатно в хорошем качестве


    Вы не можете начинать темы
    Вы не можете отвечать на сообщения
    Вы не можете редактировать свои сообщения
    Вы не можете удалять свои сообщения
    Вы не можете голосовать в опросах
    Вы не можете прикреплять файлы к сообщениям
    Вы можете скачивать файлы