Ссылка на приватное зеркало всего за 1$. Внимание количество ограничено!!!

OK

1+1

iTunes

мы

OK

1

WEB-DLRip

Джокер

Пифагор

Ведьмак / The Witcher сериал

iTunes

ПШазам

ОК

Оно 2

iTunes

30
pack

Вам бонус

ВАЖНО

!!Акция!!

Alien_RageХит недели

RePack

Resident Evil 21

ИГРА 18+

pack

RePack

jed

RePack

fifa19

RePack

Assassins Creed: Odyssey

RePack

NEED FOR SPEED™ PAYBACK

4 сезон

9 сезон

Бесстыжие 9 сезон

Все сериалы

все сериалы на PB.wtf

RePack

FAR CRY 5
  

Долгий день уходит в ночь / Di qiu zui hou de ye wan (Би Гань) [2018, драма, детектив, мелодрама, фильм-нуар, WEB-DL 720p] MVO [КОЛОБОК] pb.wtf

Долгий день уходит в ночь через торрент pb.wtf

Размер: 5.37 GB | Добавлен: 11 мес. назад | Торрент скачан:25 раз
Скачать  

23-02-2019 20:24 Долгий день уходит в ночь Скачать торрент  

Долгий день уходит в ночь / Di qiu zui hou de ye wan Год выпуска: 2018
Страна: Китай, Франция
Жанр: драма, детектив, мелодрама, фильм-нуар
Продолжительность: 02:19:26
Перевод: Любительский (многоголосый) | КОЛОБОК
Субтитры: отсутствуют

Режиссер: Би Гань

rating

В ролях:

Тан Вэй, Хуан Цзюэ, Сильвия Чан, Чэнь Юнчжун, Ли Хунчи, Ли Мэн, Цзэн Мэйхуэйцзы

Описание:

Ло Иву возвращается в родной город на похороны отца. 12 лет назад у него здесь был роман с девушкой его друга, и с тех пор она поселилась в его воспоминаниях, желаниях и даже кошмарах. Теперь для Иву в поисках той женщины прошлое смешивается с настоящим, а реальность - с вымыслом.

Качество: WEB-DL 720p
Формат: MKV

Видео: 5123 Кбит/с, 1280x690
Аудио: Русский, (AC3, 2 ch, 384 Кбит/с)
скриншот  скриншот  скриншот  

Общее
Уникальный идентификатор : 217399356154048913425921339825790817063 (0xA38D97CE3E0C01C6B06274B947529327)
Полное имя : D:\Long.Days.Journey.Into.Night.2018.Pk.WEB-DL.72Op.mkv
Формат : Matroska
Версия формата : Version 2
Размер файла : 5,37 Гбайт
Продолжительность : 2 ч. 19 м.
Режим общего битрейта : Переменный
Общий поток : 5509 Кбит/сек
Дата кодирования : UTC 2019-02-23 08:08:13
Программа кодирования : mkvmerge v8.3.0 ('Over the Horizon') 64bit
Библиотека кодирования : libebml v1.3.1 + libmatroska v1.4.2

Видео
Идентификатор : 1
Формат : AVC
Формат/Информация : Advanced Video Codec
Профиль формата : High@L4.1
Параметр CABAC формата : Да
Параметр RefFrames формата : 4 кадра
Идентификатор кодека : V_MPEG4/ISO/AVC
Продолжительность : 2 ч. 19 м.
Вид битрейта : Переменный
Битрейт : 5123 Кбит/сек
Максимальный битрейт : 6000 Кбит/сек
Ширина : 1280 пикселей
Высота : 690 пикселей
Соотношение сторон : 1,85:1
Режим частоты кадров : Постоянный
Частота кадров : 23,976 (24000/1001) кадра/сек
Стандарт вещания : Component
Цветовое пространство : YUV
Субдискретизация насыщенности : 4:2:0
Битовая глубина : 8 бит
Тип развёртки : Прогрессивная
Бит/(Пиксели*Кадры) : 0.237
Размер потока : 4,89 Гбайт (91%)
Default : Да
Forced : Нет
Цветовой диапазон : Limited
Основные цвета : BT.709
Характеристики трансфера : BT.709
Коэффициенты матрицы : BT.709

Аудио
Идентификатор : 2
Формат : AC-3
Формат/Информация : Audio Coding 3
Расширение режима : CM (complete main)
Параметр Endianness формата : Big
Идентификатор кодека : A_AC3
Продолжительность : 2 ч. 19 м.
Вид битрейта : Постоянный
Битрейт : 384 Кбит/сек
Каналы : 2 канала
Расположение каналов : Front: L R
Частота : 48,0 КГц
Частота кадров : 31,250 кадров/сек (1536 spf)
Метод сжатия : С потерями
Размер потока : 383 Мбайт (7%)
Default : Да
Forced : Нет

pb.wtf



Скачать Долгий день уходит в ночь через торрент https://b.radikal.ru/b24/1902/e7/6bd37fb993e9.jpg Скачать фильм Долгий день уходит в ночь через торрент бесплантно в хорошем качестве Описание: Ло Иву возвращается в родной город на похороны отца. 12 лет назад у него здесь был роман с девушкой его друга, и с тех пор она ... 10 10 3
Торрент: Зарегистрирован [2019-02-23 20:24] · скачан: 25 раз
Статус: T временная
Размер: 5.37 GB
Как cкачать? Как скачать Долгий день уходит в ночь через торрент | qTorrent

% Раздел Тема Автор DL S | L
Азиатские фильмы [ 5.26 GB ] Долгий день уходит в ночь / Di qiu zui hou de ye wan / Long Day's Journey Into Night [2018 фильм-нуар WEBRip 1080p] MVO [HDRezka Studio] bober100 Скачать
2 | 0
T Фильмы (мультфильмы) cо спонсором показа (Новинки AVI/MKV) [ 2.03 GB ] Долгий день уходит в ночь / Di qiu zui hou de ye wan [2018 фильм-нуар WEB-DLRip] MVO [КОЛОБОК] bober100 Скачать
1 | 0
T Фильмы (мультфильмы) cо спонсором показа (Новинки AVI/MKV) [ 1.37 GB ] Долгий день уходит в ночь / Di qiu zui hou de ye wan [2018 фильм-нуар WEB-DLRip] MVO [КОЛОБОК] bober100 Скачать
1 | 0

28-11-2019 20:33  

Отключить всю рекламу на сайте

    Дорогой пользователь! Огромная просьба, поблагодарите релизера, оцените раздачу и оставьте свои комментарий, если Вы скачали Долгий день уходит в ночь через торрент бесплатно! Внесите свою лепту в развитие PiratBit!
    Комментировать посты могут только пользователи прошедшие не сложную регистрацию
    Показать сообщения:    

    Долгий день уходит в ночь через торрент
    Скачать бесплатно Долгий день уходит в ночь
    Долгий день уходит в ночь скачать торрент
    Долгий день уходит в ночь смотреть онлайн
    Cкачать фильм Долгий день уходит в ночь бесплатно
    Долгий день уходит в ночь скачать торрент в хорошем качестве
    Долгий день уходит в ночь смотреть онлайн бесплатно в хорошем качестве


    Вы не можете начинать темы
    Вы не можете отвечать на сообщения
    Вы не можете редактировать свои сообщения
    Вы не можете удалять свои сообщения
    Вы не можете голосовать в опросах
    Вы не можете прикреплять файлы к сообщениям
    Вы можете скачивать файлы