Ссылка на приватное зеркало всего за 1$. Внимание количество ограничено!!!

OK

1+1

iTunes

мы

OK

1

WEB-DLRip

Джокер

Пифагор

Ведьмак / The Witcher сериал

iTunes

ПШазам

ОК

Оно 2

iTunes

30
pack

Вам бонус

ВАЖНО

!!Акция!!

Alien_RageХит недели

RePack

Resident Evil 21

ИГРА 18+

pack

RePack

jed

RePack

fifa19

RePack

Assassins Creed: Odyssey

RePack

NEED FOR SPEED™ PAYBACK

4 сезон

9 сезон

Бесстыжие 9 сезон

Все сериалы

все сериалы на PB.wtf

RePack

FAR CRY 5
  

Тёмное зеркало / Look Away (Асаф Бернштейн) [2018, Ужасы, триллер, BDRip 1080p] MVO [HDrezka Studio] +DUB [iTunes] pb.wtf

Тёмное зеркало через торрент pb.wtf

Размер: 7.02 GB | Добавлен: 11 мес. назад | Торрент скачан:298 раз
Скачать  

24-02-2019 01:18 Тёмное зеркало Скачать торрент  

Тёмное зеркало / Look Away Год выпуска: 2018
Страна: Канада, США
Жанр: Ужасы, триллер
Продолжительность: 01:43:40
Перевод:

#1: Дублированный | iTunes
#2: Профессиональный многоголосый | HDRezka Studio

Субтитры: Русские (Full), английские

Режиссер: Асаф Бернштейн

rating

В ролях:

Индиа Айсли, Джейсон Айзекс, Пенелопа Митчелл, Мира Сорвино, Харрисон Гилбертсон, Кристен Харрис, Адам Хертиг, Джон С. МакДональд, Коннор Питерсон, Кристина Сеговиа

Описание:

Презираемая сверстниками в школе Мария пребывает в тяжелом психологическом состоянии. У девушки не самые лучшие отношения с родителями, у неё нет ни единого друга, а нападки недоброжелателей постепенно доходят до проявлений физического насилия. Собственное отражение в зеркале давно стало для девушки единственным приятным собеседником, но в один момент оно начинает не только общаться с ней — отражение берет на себя решение всех проблем Марии и приступает к действию, используя самые страшные средства и оставив саму Марию в качестве наблюдателя по ту сторону зеркала…

Качество: BDRip 1080p
Формат: MKV

Видео: MPEG-4 AVC, 1920x800, 8500 Кbit/s, 23.976 fps
Аудио#1: 48 kHz, AC3, 5.1, 384 Kbps | iTunes | RUS |
Аудио#2: 48 kHz, AC3, 2.0, 192 Kbps | HDRezka Studio | RUS |
Аудио#3: 48 kHz, AC3, 5.1, 640 Kbps | Оригинал | ENG |
скриншот  скриншот  скриншот  скриншот  скриншот  

General
Unique ID : 197980240918370954705168103885452760239 (0x94F19B81115E14A63D4EF0C6166A54AF)
Complete name : D:Video111Look.Away.2018.BDRip.1080p.seleZen.mkv
Format : Matroska
Format version : Version 4
File size : 7.02 GiB
Duration : 1 h 43 min
Overall bit rate : 9 690 kb/s
Movie name : Look Away 2018 from селезень
Encoded date : UTC 2019-02-23 22:30:24
Writing application : mkvmerge v31.0.0 ('Dolores In A Shoestand') 64-bit
Writing library : libebml v1.3.6 + libmatroska v1.4.9

Video
ID : 1
Format : AVC
Format/Info : Advanced Video Codec
Format profile : High@L4.1
Format settings : CABAC / 5 Ref Frames
Format settings, CABAC : Yes
Format settings, ReFrames : 5 frames
Codec ID : V_MPEG4/ISO/AVC
Duration : 1 h 43 min
Bit rate : 8 500 kb/s
Width : 1 920 pixels
Height : 800 pixels
Display aspect ratio : 2.40:1
Frame rate mode : Constant
Frame rate : 23.976 (24000/1001) FPS
Color space : YUV
Chroma subsampling : 4:2:0
Bit depth : 8 bits
Scan type : Progressive
Bits/(Pixel*Frame) : 0.231
Stream size : 6.14 GiB (87%)
Title : seleZen
Writing library : x264 core 148 r2705kMod 3f5ed56
Encoding settings : cabac=1 / ref=5 / deblock=1:-2:-2 / analyse=0x3:0x133 / me=umh / subme=11 / psy=1 / fade_compensate=0.00 / psy_rd=1.20:0.04 / mixed_ref=1 / me_range=32 / chroma_me=1 / trellis=2 / 8x8dct=1 / cqm=0 / deadzone=21,11 / fast_pskip=0 / chroma_qp_offset=-3 / threads=12 / lookahead_threads=2 / sliced_threads=0 / nr=0 / decimate=0 / interlaced=0 / bluray_compat=0 / constrained_intra=0 / fgo=0 / bframes=8 / b_pyramid=2 / b_adapt=2 / b_bias=0 / direct=3 / weightb=1 / open_gop=0 / weightp=2 / keyint=240 / keyint_min=23 / scenecut=40 / intra_refresh=0 / rc_lookahead=50 / rc=2pass / mbtree=0 / bitrate=8500 / ratetol=1.0 / qcomp=0.60 / qpmin=0 / qpmax=51 / qpstep=4 / cplxblur=20.0 / qblur=0.5 / vbv_maxrate=50000 / vbv_bufsize=62500 / nal_hrd=none / filler=0 / ip_ratio=1.40 / pb_ratio=1.30 / aq=3:0.80
Language : English
Default : Yes
Forced : No

Audio #1
ID : 2
Format : AC-3
Format/Info : Audio Coding 3
Commercial name : Dolby Digital
Codec ID : A_AC3
Duration : 1 h 43 min
Bit rate mode : Constant
Bit rate : 384 kb/s
Channel(s) : 6 channels
Channel layout : L R C LFE Ls Rs
Sampling rate : 48.0 kHz
Frame rate : 31.250 FPS (1536 SPF)
Bit depth : 16 bits
Compression mode : Lossy
Stream size : 285 MiB (4%)
Title : iTunes
Language : Russian
Service kind : Complete Main
Default : Yes
Forced : Yes

Audio #2
ID : 3
Format : AC-3
Format/Info : Audio Coding 3
Commercial name : Dolby Digital
Codec ID : A_AC3
Duration : 1 h 43 min
Bit rate mode : Constant
Bit rate : 192 kb/s
Channel(s) : 2 channels
Channel layout : L R
Sampling rate : 48.0 kHz
Frame rate : 31.250 FPS (1536 SPF)
Bit depth : 16 bits
Compression mode : Lossy
Stream size : 142 MiB (2%)
Title : MVO [HDRezka Studio]
Language : Russian
Service kind : Complete Main
Default : No
Forced : No

Audio #3
ID : 4
Format : AC-3
Format/Info : Audio Coding 3
Commercial name : Dolby Digital
Codec ID : A_AC3
Duration : 1 h 43 min
Bit rate mode : Constant
Bit rate : 640 kb/s
Channel(s) : 6 channels
Channel layout : L R C LFE Ls Rs
Sampling rate : 48.0 kHz
Frame rate : 31.250 FPS (1536 SPF)
Bit depth : 16 bits
Compression mode : Lossy
Stream size : 475 MiB (7%)
Title : Original
Language : English
Service kind : Complete Main
Default : No
Forced : No

Text #1
ID : 5
Format : UTF-8
Codec ID : S_TEXT/UTF8
Codec ID/Info : UTF-8 Plain Text
Duration : 1 h 35 min
Bit rate : 46 b/s
Count of elements : 772
Stream size : 32.8 KiB (0%)
Title : Full
Language : Russian
Default : No
Forced : No

Text #2
ID : 6
Format : UTF-8
Codec ID : S_TEXT/UTF8
Codec ID/Info : UTF-8 Plain Text
Duration : 1 h 39 min
Bit rate : 30 b/s
Count of elements : 802
Stream size : 22.5 KiB (0%)
Language : English
Default : No
Forced : No

Menu
00:00:00.000 : :Capítulo 01
00:10:36.219 : :Capítulo 02
00:19:55.820 : :Capítulo 03
00:26:28.796 : :Capítulo 04
00:35:57.947 : :Capítulo 05
00:43:52.630 : :Capítulo 06
00:53:10.896 : :Capítulo 07
01:01:52.459 : :Capítulo 08
01:09:05.641 : :Capítulo 09
01:17:10.042 : :Capítulo 10
01:24:25.811 : :Capítulo 11
01:37:18.708 : :Capítulo 12

pb.wtf



Скачать Тёмное зеркало через торрент http://img10.lostpic.net/2019/02/23/084ad6815635f6d26d54cd09e20d6aad.jpg Скачать фильм Тёмное зеркало через торрент бесплантно в хорошем качестве Описание: Презираемая сверстниками в школе Мария пребывает в тяжелом психологическом состоянии. У девушки не самые лучшие отношения с ... 10 10 12
Info! Золотая раздача, скачанное не засчитывается.
Торрент: Зарегистрирован [2019-02-24 01:18] · скачан: 298 раз
Статус: √ проверено
Размер: 7.02 GB
Как cкачать? Как скачать Тёмное зеркало через торрент | qTorrent

% Раздел Тема Автор DL S | L
Фильмы 2018 [DVDrip, WEB-DLRip, HDrip] (DUB, MVO) [ 1.41 GB ] Тёмное зеркало / Look Away [2018 BDRip] - Twi7ter Скачать
5 | 0
Фильмы (WEB-DL 720p, 1080p) [ 3.86 GB ] Тёмное зеркало / Look Away [2018 WEB-DL 1080p] Dub () Skandar2019 Скачать
2 | 0
Фильмы [HD 720p, 1080p] (Хороший звук DUB, MVO) [ 5.75 GB ] Тёмное зеркало / Look Away [2018 BDRip 720p] MVO [HDrezka Studio] + bober100 Скачать
1 | 0
Фильмы 2018 [DVDrip, WEB-DLRip, HDrip] (DUB, MVO) [ 1.9 GB ] Тёмное зеркало / Look Away [2018 BDRip-AVC] bober100 Скачать
3 | 0
Фильмы 2018 [DVDrip, WEB-DLRip, HDrip] (DUB, MVO) [ 1.41 GB ] Тёмное зеркало / Look Away [2018 BDRip] bober100 Скачать
1 | 0
Фильмы 2018 [DVDrip, WEB-DLRip, HDrip] (DUB, MVO) [ 2.01 GB ] Тёмное зеркало / Look Away [2018 WEB-DLRip-AVC] MVO [HDRezka Studio] + bober100 Скачать
3 | 0
T Фильмы с украинским озвучиванием [ 3.72 GB ] Тёмное зеркало / Look Away [2018 WEB-DL 1080p] [Ukr DUB] killermax2013 Скачать
1 | 0

28-11-2019 20:33  

Отключить всю рекламу на сайте

    Дорогой пользователь! Огромная просьба, поблагодарите релизера, оцените раздачу и оставьте свои комментарий, если Вы скачали Тёмное зеркало через торрент бесплатно! Внесите свою лепту в развитие PiratBit!
    Комментировать посты могут только пользователи прошедшие не сложную регистрацию
    Показать сообщения:    

    Тёмное зеркало через торрент
    Скачать бесплатно Тёмное зеркало
    Тёмное зеркало скачать торрент
    Тёмное зеркало смотреть онлайн
    Cкачать фильм Тёмное зеркало бесплатно
    Тёмное зеркало скачать торрент в хорошем качестве
    Тёмное зеркало смотреть онлайн бесплатно в хорошем качестве


    Вы не можете начинать темы
    Вы не можете отвечать на сообщения
    Вы не можете редактировать свои сообщения
    Вы не можете удалять свои сообщения
    Вы не можете голосовать в опросах
    Вы не можете прикреплять файлы к сообщениям
    Вы можете скачивать файлы